<?xml version="1.0" standalone="no"?>
<!DOCTYPE svg PUBLIC "-//W3C//DTD SVG 1.1//EN" "http://www.w3.org/Graphics/SVG/1.1/DTD/svg11.dtd" >
<svg xmlns="http://www.w3.org/2000/svg">
<metadata>
<json>
<![CDATA[
{
	"fontFamily": "Bosch-Icon",
	"majorVersion": 2,
	"minorVersion": 1,
	"description": "Version 2.1 – 630 icons – 2018-07-11\nFont generated by IcoMoon.",
	"copyright": "© 2018 Robert Bosch GmbH",
	"version": "Version 2.1",
	"fontId": "Bosch-Icon",
	"psName": "Bosch-Icon",
	"subFamily": "Regular",
	"fullName": "Bosch-Icon"
}
]]>
</json>
</metadata>
<defs>
<font id="Bosch-Icon" horiz-adv-x="1024">
<font-face units-per-em="1024" ascent="960" descent="-64" />
<missing-glyph horiz-adv-x="1024" />
<glyph unicode="&#x20;" horiz-adv-x="512" d="" />
<glyph unicode="&#xe085;" glyph-name="Bosch-IC-3d-print" data-tags="Bosch-IC-3d-print" d="M476.8 272c14.4 5.867 21.333 15.467 21.333 29.333 0 24.533-20.8 40.533-52.8 40.533-28.267 0-46.933-12.267-55.467-35.733l28.8-11.733c5.333 12.8 13.333 18.667 25.067 18.667 10.667 0 17.6-5.867 17.6-14.933 0-9.6-7.467-15.467-19.2-15.467h-11.2v-26.667h10.133c14.933 0 22.4-4.8 22.4-15.467 0-10.133-8-16.533-20.8-16.533-13.333 0-20.8 5.333-24.533 19.2l-33.067-9.6c5.867-24.533 27.733-38.4 60.267-38.4 35.2 0 57.6 17.067 57.6 44.267-1.6 15.467-9.6 26.667-26.133 32.533zM577.067 339.2h-56v-142.933h54.933c45.867 0 73.6 27.2 73.6 72 0.533 44.267-27.2 70.933-72.533 70.933zM577.6 227.2h-17.6v81.067h17.067c20.8 0 32-13.867 32-40.533s-10.667-40.533-31.467-40.533zM768 149.333v618.667c0 58.667-48 106.667-106.667 106.667h-298.667c-58.667 0-106.667-48-106.667-106.667v-618.667h-85.333v-128h682.667v128h-85.333zM426.667 832h170.667v-85.333h-170.667v85.333zM554.667 704v-64h-85.333v64h85.333zM298.667 768c0 35.733 28.267 64 64 64h21.333v-128h42.667v-64c0-23.467 19.2-42.667 42.667-42.667h21.333v-40c0-1.6-1.067-2.667-2.667-2.667h-82.667c-23.467 0-42.667-19.2-42.667-42.667v-42.667c0-23.467 19.2-42.667 42.667-42.667h210.667c1.6 0 2.667-1.067 2.667-2.667v-40h42.667v42.667c0 23.467-19.2 42.667-42.667 42.667h-210.667c-1.6 0-2.667 1.067-2.667 2.667v37.333c0 1.6 1.067 2.667 2.667 2.667h82.667c23.467 0 42.667 19.2 42.667 42.667v42.667h21.333c23.467 0 42.667 19.2 42.667 42.667v64h42.667v128h21.333c35.733 0 64-28.267 64-64v-618.667h-426.667v618.667zM810.667 64h-597.333v42.667h597.333v-42.667z" />
<glyph unicode="&#xe086;" glyph-name="Bosch-IC-a-to-b" data-tags="Bosch-IC-a-to-b" d="M682.667 426.667c0-46.933 38.4-85.333 85.333-85.333s85.333 38.4 85.333 85.333c0 39.467-27.2 73.067-64 82.667v130.667c0 82.133-67.2 149.333-149.333 149.333s-149.333-67.2-149.333-149.333v-384c0-58.667-48-106.667-106.667-106.667s-106.667 48-106.667 106.667v130.667c36.8 9.6 64 42.667 64 82.667 0 46.933-38.4 85.333-85.333 85.333s-85.333-38.4-85.333-85.333c0-39.467 27.2-73.067 64-82.667v-130.667c0-82.133 67.2-149.333 149.333-149.333s149.333 67.2 149.333 149.333v384c0 58.667 48 106.667 106.667 106.667s106.667-48 106.667-106.667v-130.667c-36.8-9.6-64-43.2-64-82.667zM213.333 469.333c0 23.467 19.2 42.667 42.667 42.667s42.667-19.2 42.667-42.667-19.2-42.667-42.667-42.667-42.667 19.2-42.667 42.667zM810.667 426.667c0-23.467-19.2-42.667-42.667-42.667s-42.667 19.2-42.667 42.667 19.2 42.667 42.667 42.667 42.667-19.2 42.667-42.667zM223.467 633.6h77.867l12.267-36.267h45.867l-68.8 192h-49.6l-70.4-192h40.533l12.267 36.267zM262.933 748.8l28.267-84.267h-57.6l29.333 84.267zM819.2 205.333c19.2 9.067 26.667 20.267 26.667 40.533 0 32.533-21.867 50.133-61.867 50.133h-85.333v-189.333h88.533c43.2 0 66.133 18.667 66.133 53.333 0 24-9.6 36.8-34.133 45.333zM740.267 264h40c17.067 0 25.067-6.933 25.067-21.867s-7.467-22.4-23.467-22.4h-41.6v44.267zM784 139.2h-43.733v50.133h42.133c19.2 0 29.333-8.533 29.333-25.067s-10.133-25.067-27.733-25.067z" />
<glyph unicode="&#xe087;" glyph-name="Bosch-IC-add" data-tags="Bosch-IC-add" d="M853.333 469.333h-320v320h-42.667v-320h-320v-42.667h320v-320h42.667v320h320z" />
<glyph unicode="&#xe088;" glyph-name="Bosch-IC-address-consumer-data" data-tags="Bosch-IC-address-consumer-data" d="M85.333 725.333v-554.667h853.333v554.667h-853.333zM192 213.333c0 70.4 57.6 128 128 128s128-57.6 128-128h-256zM320 405.333c-35.2 0-64 28.8-64 64s28.8 64 64 64 64-28.8 64-64-28.8-64-64-64zM896 213.333h-405.333c0 76.267-50.133 140.8-118.933 162.667 32.533 18.133 54.933 53.333 54.933 93.333 0 58.667-48 106.667-106.667 106.667s-106.667-48-106.667-106.667c0-40 22.4-75.2 54.933-93.333-68.8-21.867-118.933-86.4-118.933-162.667h-21.333v469.333h768v-469.333zM512 576h341.333v-42.667h-341.333v42.667zM512 469.333h341.333v-42.667h-341.333v42.667zM512 362.667h256v-42.667h-256v42.667z" />
<glyph unicode="&#xe089;" glyph-name="Bosch-IC-adress-book" data-tags="Bosch-IC-adress-book" d="M554.667 411.2c82.133 0 149.333-69.867 149.333-155.2h42.667c0 82.667-49.6 153.6-120 183.467 36.267 23.467 60.267 64.533 60.267 110.933 0 73.067-59.2 132.267-132.267 132.267s-132.267-59.2-132.267-132.267c0-46.4 24-87.467 60.267-110.933-70.4-29.867-120-100.8-120-183.467h42.667c0 85.333 67.2 155.2 149.333 155.2zM554.667 640c49.6 0 89.6-40.533 89.6-89.6 0-49.6-40.533-89.6-89.6-89.6s-89.6 40.533-89.6 89.6c0 49.067 40 89.6 89.6 89.6zM256 874.667v-85.333h-85.333v-42.667h85.333v-170.667h-85.333v-42.667h85.333v-170.667h-85.333v-42.667h85.333v-170.667h-85.333v-42.667h85.333v-85.333h597.333v853.333h-597.333zM810.667 64h-512v768h512v-768z" />
<glyph unicode="&#xe08a;" glyph-name="Bosch-IC-agility" data-tags="Bosch-IC-agility" d="M725.333 384h-234.667v298.667h42.667v-256h192zM774.186 774.299l30.17 30.17 64.11-64.11-30.17-30.17-64.11 64.11zM405.333 874.667h213.333v-42.667h-213.333v42.667zM85.333 554.667h170.667v-42.667h-170.667v42.667zM85.333 384h170.667v-42.667h-170.667v42.667zM128 469.333h128v-42.667h-128v42.667zM512 789.333c-141.867 0-265.6-77.333-332.267-192h50.133c61.867 90.133 165.333 149.333 282.133 149.333 188.267 0 341.333-153.067 341.333-341.333s-153.067-341.333-341.333-341.333c-150.933 0-279.467 98.667-324.267 234.667h-44.8c46.4-160 194.133-277.333 369.067-277.333 211.733 0 384 172.267 384 384s-172.267 384-384 384z" />
<glyph unicode="&#xe08b;" glyph-name="Bosch-IC-alarm-clock" data-tags="Bosch-IC-alarm-clock" d="M533.333 682.667h-42.667v-298.667h234.667v42.667h-192zM777.067 682.667l44.267 44.267 59.733-59.733 30.4 30.4-149.333 149.333-30.4-30.4 59.2-59.2-46.4-46.4c-64.533 49.067-145.067 78.4-232.533 78.4s-168-29.333-232.533-78.4l-46.4 46.4 59.733 59.733-30.4 30.4-149.333-149.333 30.4-30.4 59.2 59.2 44.267-44.267c-73.067-69.867-118.933-168.533-118.933-277.333 0-211.733 172.267-384 384-384s384 172.267 384 384c0 108.8-45.867 207.467-118.933 277.333zM512 64c-188.267 0-341.333 153.067-341.333 341.333s153.067 341.333 341.333 341.333 341.333-153.067 341.333-341.333-153.067-341.333-341.333-341.333zM448 874.667h128v-42.667h-128v42.667z" />
<glyph unicode="&#xe08c;" glyph-name="Bosch-IC-ambulance" data-tags="Bosch-IC-ambulance" d="M384 384v64h64v42.667h-64v64h-42.667v-64h-64v-42.667h64v-64zM938.667 428.8l-17.6 88c-16.533 83.2-89.6 144-174.4 144.533h-661.333v-469.333h107.2c5.333-48 45.867-85.333 95.467-85.333s90.133 37.333 95.467 85.333h299.733c5.333-48 45.867-85.333 95.467-85.333s90.133 37.333 95.467 85.333h64.533v236.8zM879.467 508.267l16.533-83.733v-19.2h-256v213.333h104.533c65.067 0 122.133-46.4 134.933-110.4zM288 149.333c-29.333 0-53.333 24-53.333 53.333s24 53.333 53.333 53.333 53.333-24 53.333-53.333-24-53.333-53.333-53.333zM288 298.667c-41.6 0-77.333-26.667-90.133-64h-69.867v384h469.333v-384h-219.2c-12.8 37.333-48.533 64-90.133 64zM778.667 149.333c-29.333 0-53.333 24-53.333 53.333s24 53.333 53.333 53.333 53.333-24 53.333-53.333-24-53.333-53.333-53.333zM868.8 234.667c-13.333 37.333-48.533 64-90.133 64s-77.333-26.667-90.133-64h-48.533v128h256v-128h-27.2z" />
<glyph unicode="&#xe08d;" glyph-name="Bosch-IC-analysis" data-tags="Bosch-IC-analysis" d="M938.667 234.667v554.667h-853.333v-554.667h341.333v-85.333h-85.333v-42.667h341.333v42.667h-85.333v85.333h341.333zM128 746.667h768v-469.333h-768v469.333zM554.667 149.333h-85.333v85.333h85.333v-85.333zM617.6 582.933c-2.667 8.533-11.2 14.4-20.267 14.4s-17.6-5.867-20.267-14.4l-22.4-67.733-43.733 131.2c-2.667 9.067-11.2 14.933-20.267 14.933s-17.6-5.867-20.267-14.4l-65.067-195.733-22.4 67.2c-2.667 9.067-11.2 14.933-20.267 14.933h-64v-42.667h48.533l37.867-113.6c2.667-8.533 11.2-14.4 20.267-14.4s17.6 5.867 20.267 14.4l65.067 195.733 43.733-131.2c2.667-8.533 11.2-14.4 20.267-14.4s17.6 5.867 20.267 14.4l22.4 67.2 1.067-3.2c2.667-8.533 11.2-14.4 20.267-14.4h106.667v42.667h-91.2l-16.533 49.067z" />
<glyph unicode="&#xe08e;" glyph-name="Bosch-IC-anchor" data-tags="Bosch-IC-anchor" d="M533.333 554.667h-42.667v-42.667h42.667c23.467 0 42.667-19.2 42.667-42.667v-277.333c0-23.467-19.2-42.667-42.667-42.667h-362.667c-23.467 0-42.667 19.2-42.667 42.667v277.333c0 23.467 19.2 42.667 42.667 42.667h192v42.667h-192c-46.933 0-85.333-38.4-85.333-85.333v-277.333c0-46.933 38.4-85.333 85.333-85.333h362.667c46.933 0 85.333 38.4 85.333 85.333v277.333c0 46.933-38.4 85.333-85.333 85.333zM853.333 789.333h-362.667c-46.933 0-85.333-38.4-85.333-85.333v-277.333c0-46.933 38.4-85.333 85.333-85.333h42.667v42.667h-42.667c-23.467 0-42.667 19.2-42.667 42.667v277.333c0 23.467 19.2 42.667 42.667 42.667h362.667c23.467 0 42.667-19.2 42.667-42.667v-277.333c0-23.467-19.2-42.667-42.667-42.667h-192v-42.667h192c46.933 0 85.333 38.4 85.333 85.333v277.333c0 46.933-38.4 85.333-85.333 85.333z" />
<glyph unicode="&#xe08f;" glyph-name="Bosch-IC-arrow-down" data-tags="Bosch-IC-arrow-down" d="M667.733 249.6l-134.4-133.867v758.933h-42.667v-758.933l-134.4 133.867-29.867-29.867 185.6-186.133 185.6 186.133z" />
<glyph unicode="&#xe090;" glyph-name="Bosch-IC-arrow-left" data-tags="Bosch-IC-arrow-left" d="M938.667 469.333h-758.933l133.867 134.4-29.867 29.867-186.133-185.6 186.133-185.6 29.867 29.867-133.867 134.4h758.933z" />
<glyph unicode="&#xe091;" glyph-name="Bosch-IC-arrow-left-down" data-tags="Bosch-IC-arrow-left-down" d="M846.933 753.067l-29.867 29.867-603.733-603.2v209.6h-42.667v-282.667h272v42.667h-198.933z" />
<glyph unicode="&#xe092;" glyph-name="Bosch-IC-arrow-left-up" data-tags="Bosch-IC-arrow-left-up" d="M846.933 142.933l-603.2 603.733h209.6v42.667h-282.667v-272h42.667v198.933l603.733-603.2z" />
<glyph unicode="&#xe093;" glyph-name="Bosch-IC-arrow-right" data-tags="Bosch-IC-arrow-right" d="M740.267 633.6l-29.867-29.867 133.867-134.4h-758.933v-42.667h758.933l-133.867-134.4 29.867-29.867 186.133 185.6z" />
<glyph unicode="&#xe094;" glyph-name="Bosch-IC-arrow-right-down" data-tags="Bosch-IC-arrow-right-down" d="M810.667 378.667v-198.933l-603.733 603.2-29.867-29.867 603.2-603.733h-209.6v-42.667h282.667v272z" />
<glyph unicode="&#xe095;" glyph-name="Bosch-IC-arrow-right-up" data-tags="Bosch-IC-arrow-right-up" d="M581.333 789.333v-42.667h198.933l-603.2-603.733 29.867-29.867 603.733 603.2v-209.6h42.667v282.667z" />
<glyph unicode="&#xe096;" glyph-name="Bosch-IC-arrow-turn-left" data-tags="Bosch-IC-arrow-turn-left" d="M243.733 490.667l45.867 46.4-29.867 29.867-98.133-97.6 100.8-100.267 29.867 29.867-48.533 49.067h246.933v-341.333h42.667v384z" />
<glyph unicode="&#xe097;" glyph-name="Bosch-IC-arrow-turn-right" data-tags="Bosch-IC-arrow-turn-right" d="M780.267 490.667l-45.867 46.4 29.867 29.867 98.133-97.6-100.8-100.267-29.867 29.867 48.533 49.067h-246.933v-341.333h-42.667v384z" />
<glyph unicode="&#xe098;" glyph-name="Bosch-IC-arrow-up" data-tags="Bosch-IC-arrow-up" d="M697.6 676.267l-185.6 186.133-185.6-186.133 29.867-29.867 134.4 133.867v-758.933h42.667v758.933l134.4-133.867z" />
<glyph unicode="&#xe099;" glyph-name="Bosch-IC-arrows" data-tags="Bosch-IC-arrows" d="M533.333 106.667h-42.667v149.333c0 115.733 88 213.333 192 213.333v-42.667c-79.467 0-149.333-80-149.333-170.667v-149.333zM443.2 626.667l-33.067 26.667 101.867 127.467 101.867-127.467-33.067-26.667-68.8 85.867zM717.333 346.133l-26.667 33.067 85.867 68.8-85.867 68.8 26.667 33.067 127.467-101.867zM306.667 346.133l-127.467 101.867 127.467 101.867 26.667-33.067-85.867-68.8 85.867-68.8zM511.467 428.8c6.933 8 14.4 16 21.867 22.933v188.267h-42.667v-190.933c6.933-6.4 13.867-13.867 20.267-21.333 0 0 0.533 0.533 0.533 1.067zM385.067 462.933c-1.6 0.533-3.2 1.067-4.8 1.067 1.6-0.533 3.2-0.533 4.8-1.067zM414.4 451.2c-3.2 1.6-6.4 3.2-9.6 4.267 3.2-1.067 6.4-2.667 9.6-4.267zM374.4 465.6c-3.733 0.533-6.933 1.6-10.667 2.133 3.733-0.533 6.933-1.6 10.667-2.133zM397.867 458.667c-1.6 0.533-2.667 1.067-4.267 1.6 1.6-0.533 2.667-1.067 4.267-1.6zM341.333 469.333c3.733 0 8 0 11.733-0.533-3.733 0.533-8 0.533-11.733 0.533zM420.8 448c-1.6 1.067-3.2 1.6-4.8 2.667-0.533 0.533-1.6 0.533-2.133 1.067-3.2 1.6-6.4 3.2-9.6 4.267-2.133 1.067-4.8 2.133-6.933 2.667-1.6 0.533-2.667 1.067-4.267 1.6-2.667 1.067-5.867 2.133-8.533 2.667-1.6 0.533-3.2 1.067-4.8 1.067-2.133 0.533-4.267 1.067-5.867 1.6-3.733 0.533-6.933 1.6-10.667 2.133-2.667 0.533-4.8 0.533-7.467 1.067-1.067 0-2.133 0-3.2 0.533-3.2 0-7.467 0-11.2 0v-42.667c54.933 0 99.2-41.067 123.2-80 5.867 15.467 12.8 30.4 20.8 44.267 0 0 0 0.533 0.533 0.533-19.733 25.6-42.133 43.733-65.067 56.533z" />
<glyph unicode="&#xe09a;" glyph-name="Bosch-IC-arrows-x-y-z" data-tags="Bosch-IC-arrows-x-y-z" d="M490.667 832h42.667v-384h-42.667v384zM582.4 731.733l-70.4 69.867-70.4-69.867-29.867 29.867 100.267 100.8 100.267-100.8zM512 469.333h384v-42.667h-384v42.667zM825.6 347.733l-29.867 29.867 69.867 70.4-69.867 70.4 29.867 29.867 100.8-100.267zM283.296 250.282l213.073 213.073 30.17-30.17-213.073-213.073-30.17 30.17zM419.2 213.333h-141.867v141.867h42.667v-99.2h99.2z" />
<glyph unicode="&#xe09b;" glyph-name="Bosch-IC-artificial-intelligence" data-tags="Bosch-IC-artificial-intelligence" d="M490.667 533.333h85.333v-85.333h-85.333v85.333zM661.333 426.667h42.667v42.667h-42.667v42.667h42.667v42.667h-42.667v64h-64v42.667h-42.667v-42.667h-42.667v42.667h-42.667v-42.667h-64v-64h-42.667v-42.667h42.667v-42.667h-42.667v-42.667h42.667v-64h64v-42.667h42.667v42.667h42.667v-42.667h42.667v42.667h64v64zM618.667 405.333h-170.667v170.667h170.667v-170.667zM550.933 789.333c-140.8 0-229.333-45.867-271.467-140.8-21.333-48.533-23.467-128.533-23.467-152l-72.533-116.267c-10.667-16.533-11.2-36.8-1.6-53.867s27.2-27.733 46.4-27.733h27.733v-64c0-29.333 9.067-53.333 26.667-68.8 11.2-9.6 30.4-20.267 61.333-16.533l82.667 16.533v-59.2h42.667v111.467l-131.2-26.133c-11.733-1.6-20.8 0.533-27.2 6.4-8 6.933-12.267 19.733-12.267 36.8v106.667h-70.4c-5.867 0-8.533 3.733-9.067 5.333-1.067 1.6-2.667 5.867 0.533 10.667l78.933 126.933v6.4c0 1.067-1.6 92.8 19.733 140.267 12.267 28.267 51.2 115.2 232.533 115.2 77.333 0 142.933-26.133 190.933-76.267 44.267-46.4 68.8-110.4 68.8-179.733 0-76.267-36.8-113.067-78.933-155.733-49.067-49.067-49.067-112.533-49.067-142.933v-85.333h42.667v85.333c0 26.667 0 76.267 36.267 113.067 42.667 42.667 91.733 91.733 91.733 185.6 0 148.267-104 298.667-302.4 298.667z" />
<glyph unicode="&#xe09c;" glyph-name="Bosch-IC-assembly-line" data-tags="Bosch-IC-assembly-line" d="M810.667 362.667h-85.333v106.667h-192v-106.667h-320c-70.4 0-128-57.6-128-128s57.6-128 128-128h42.667v-85.333h42.667v85.333h426.667v-85.333h42.667v85.333h42.667c70.4 0 128 57.6 128 128s-57.6 128-128 128zM576 426.667h106.667v-64h-106.667v64zM810.667 149.333h-597.333c-46.933 0-85.333 38.4-85.333 85.333s38.4 85.333 85.333 85.333h597.333c46.933 0 85.333-38.4 85.333-85.333s-38.4-85.333-85.333-85.333zM789.333 256h42.667v-42.667h-42.667v42.667zM192 256h42.667v-42.667h-42.667v42.667zM256.533 528l41.6 10.133-19.2 76.267 30.933 46.4h169.067l30.933-46.4-18.667-75.733 41.6-10.133 23.467 94.4-44.267 66.133v100.267h-42.667v85.333h-42.667v-85.333h-64v85.333h-42.667v-85.333h-42.667v-100.267l-44.267-66.667 23.467-94.4zM320 746.667h149.333v-42.667h-149.333v42.667z" />
<glyph unicode="&#xe09d;" glyph-name="Bosch-IC-atom" data-tags="Bosch-IC-atom" d="M829.333 409.6c-10.667 12.8-22.4 25.6-35.2 38.4 82.667 83.2 116.8 162.133 86.933 213.333-24.533 42.667-88 58.133-177.6 42.667-16.533-2.667-33.067-6.4-50.667-11.2-4.8 17.6-10.133 34.133-15.467 49.6-31.467 85.333-75.733 132.267-125.333 132.267-51.733 0-97.067-50.133-128.533-141.333 13.333-3.733 27.2-7.467 41.067-12.267 24 69.333 56.533 110.933 87.467 110.933 36.267 0 75.2-57.067 100.267-151.467-32.533-10.667-66.133-24-100.267-40-67.2 31.467-133.333 53.333-192 63.467-90.133 15.467-153.067 0.533-177.6-42.667-24.533-42.667-6.4-105.067 52.267-174.933 10.667-12.8 22.4-25.6 35.2-38.4-83.2-83.2-116.8-162.133-86.933-213.333 18.667-32 58.133-48.533 114.133-48.533 19.2 0 40.533 2.133 63.467 5.867 16.533 2.667 33.067 6.4 50.667 11.2 4.8-17.6 10.133-34.133 15.467-49.6 31.467-85.333 76.267-132.8 125.867-132.8 51.733 0 97.067 50.133 128.533 141.333-13.333 3.733-27.2 7.467-41.067 12.267-24.533-68.267-57.6-110.4-88-110.4-36.267 0-75.2 57.067-100.267 151.467 32.533 10.667 66.133 24 100.267 40 67.2-31.467 133.333-53.333 192-63.467 22.933-3.733 44.267-5.867 63.467-5.867 56 0 95.467 16.533 114.133 48.533 24.533 42.667 6.4 105.067-52.267 174.933zM710.933 661.867c68.8 11.733 118.933 3.733 133.333-21.867 20.8-35.733-20.267-100.267-81.6-162.133-25.067 22.4-53.333 44.8-84.267 66.133-3.2 37.333-8.533 73.6-15.467 106.667 16.533 4.8 32.533 8.533 48 11.2zM622.4 638.933c4.267-20.267 7.467-41.6 10.133-64-11.733 6.933-23.467 14.4-35.2 21.333s-24 13.333-35.733 19.733c20.267 8.533 40.533 16 60.8 22.933zM313.067 234.133c-68.8-11.733-118.933-3.733-133.333 21.867-11.733 20.267-3.2 53.867 24 94.933 14.4 21.867 33.6 44.267 57.067 67.733 25.6-22.933 53.867-45.333 84.8-66.667 3.2-37.333 8.533-73.6 15.467-106.667-16.533-4.8-32.533-8.533-48-11.2zM401.6 257.067c-4.267 20.267-7.467 41.6-10.133 64 11.733-6.933 23.467-14.4 35.2-21.333s24-13.333 35.733-19.733c-20.267-8.533-40.533-16-60.8-22.933zM844.8 256c-14.933-25.6-64.533-33.6-133.333-21.867-45.867 8-96.533 24-149.867 46.4 8 4.267 16 8.533 24 12.8l1.6 9.067c1.6 11.733 3.2 27.733 4.8 43.733-5.333-3.2-10.133-6.4-15.467-9.067-21.333-12.267-42.667-23.467-64-34.133-21.333 10.667-42.667 21.867-64 34.133-21.867 12.8-42.133 25.6-61.333 38.4-1.6 23.467-2.667 47.467-2.667 72.533 0 50.667 3.733 101.333 10.667 148.267-13.867 4.8-27.733 9.067-41.067 12.8-8.533-51.2-12.8-105.067-12.8-161.067 0-13.867 0-27.2 0.533-41.067-18.133 13.867-34.667 27.2-50.133 41.067 2.133 2.133 4.8 4.267 6.933 6.4 0.533 10.133 1.6 32 2.667 57.6-14.4-11.733-28.267-22.933-41.067-34.667-69.333 69.333-99.2 131.2-81.067 162.667 10.133 17.6 37.867 27.2 76.8 27.2 17.067 0 36.267-1.6 57.067-5.333 45.867-8 96.533-24 149.867-46.4-8-4.267-16-8.533-24-12.8l-2.133-12.8c-1.6-11.2-3.2-25.067-4.267-40 5.333 3.2 10.133 6.4 15.467 9.067 21.333 12.267 42.667 23.467 64 34.133 21.333-10.667 42.667-21.867 64-34.133 21.867-12.8 42.133-25.6 61.333-38.4 1.6-23.467 2.667-47.467 2.667-72.533 0-52.8-3.733-104-11.2-152 14.4-3.733 28.267-6.933 41.6-10.133 8 51.2 12.267 105.6 12.267 162.133 0 13.867 0 27.2-0.533 41.067 18.133-13.333 34.667-27.2 50.133-40.533-2.133-2.133-4.8-4.267-6.933-5.867-0.533-10.133-1.6-32-2.667-58.133 14.4 11.733 28.267 22.933 41.067 34.667 68.8-69.333 99.2-131.733 81.067-163.2zM512 533.333c-46.933 0-85.333-38.4-85.333-85.333s38.4-85.333 85.333-85.333 85.333 38.4 85.333 85.333-38.4 85.333-85.333 85.333zM512 405.333c-23.467 0-42.667 19.2-42.667 42.667s19.2 42.667 42.667 42.667 42.667-19.2 42.667-42.667-19.2-42.667-42.667-42.667z" />
<glyph unicode="&#xe09e;" glyph-name="Bosch-IC-augmented-reality" data-tags="Bosch-IC-augmented-reality" d="M937.6 225.067l-64 256.533c-5.867 29.867-32 51.733-62.933 51.733h-85.333v98.133l-213.333 118.4-213.333-118.4v-98.133h-85.333c-30.4 0-57.067-21.867-62.933-51.733l-64-255.467-0.533-1.067c-3.733-18.667 1.6-37.867 13.867-52.8s30.4-22.933 49.067-22.933h725.333c19.2 0 36.8 8.533 49.067 22.933s18.133 34.133 14.4 52.8zM341.333 582.4l149.333-83.2v-206.933l-149.333 83.2v206.933zM533.333 499.2l149.333 83.2v-206.933l-149.333-83.2v206.933zM660.267 618.667l-148.267-82.133-148.267 82.133 148.267 82.133 148.267-82.133zM891.2 199.467c-2.133-2.667-7.467-7.467-16.533-7.467h-725.333c-8.533 0-13.867 4.8-16.533 7.467-2.133 2.667-5.867 8.533-4.8 17.067l64 255.467 0.533 1.067c2.133 10.133 10.667 17.6 20.8 17.6h85.333v-140.8l213.333-118.4 213.333 118.4v140.8h85.333c10.133 0 19.2-7.467 20.8-17.6l64-256.533c1.6-8-2.133-13.867-4.267-17.067zM821.333 362.667c0-11.782-14.327-21.333-32-21.333s-32 9.551-32 21.333c0 11.782 14.327 21.333 32 21.333s32-9.551 32-21.333zM240 404.8c-11.2 2.667-22.933-4.267-26.133-15.467l-16-64c-2.667-11.2 4.267-22.933 15.467-26.133 1.6-0.533 3.733-0.533 5.333-0.533 9.6 0 18.133 6.4 20.8 16l16 64c2.667 11.733-4.267 22.933-15.467 26.133z" />
<glyph unicode="&#xe09f;" glyph-name="Bosch-IC-autobod" data-tags="Bosch-IC-autobod" d="M938.667 256h-298.667v490.667h-106.667v21.333c0 46.933-38.4 85.333-86.4 85.333-46.933 0-84.267-37.333-84.267-85.333v-21.333h-42.667c-43.733 0-85.333-41.6-85.333-85.333v-405.333h-64v64h21.333v42.667h-85.333v-42.667h21.333v-64h-42.667v-42.667h149.333v-64h130.133c12.267-25.067 37.867-42.667 67.2-42.667s55.467 17.6 67.2 42.667h140.8v64h98.133c-4.8-9.6-7.467-20.8-7.467-32 0-41.067 33.6-74.667 74.667-74.667s74.667 33.6 74.667 74.667c0 11.2-2.667 22.4-7.467 32h66.133v42.667zM405.333 768c0 24 18.133 42.667 41.6 42.667 24 0 43.733-19.2 43.733-42.667v-21.333h-85.333v21.333zM320 704h277.333v-149.333h-320v106.667c0 20.267 22.4 42.667 42.667 42.667zM432 149.333c-17.6 0-32 14.4-32 32s14.4 32 32 32 32-14.4 32-32-14.4-32-32-32zM505.6 192c-5.333 36.267-36.267 64-73.6 64s-68.8-27.733-73.6-64h-81.067v320h320v-320h-91.733zM837.333 181.333c0-17.6-14.4-32-32-32s-32 14.4-32 32 14.4 32 32 32 32-14.4 32-32z" />
<glyph unicode="&#xe0a0;" glyph-name="Bosch-IC-back-left" data-tags="Bosch-IC-back-left" d="M646.4 113.067l-335.467 334.933 335.467 334.933 29.867-29.867-304.533-305.067 304.533-305.067z" />
<glyph unicode="&#xe0a1;" glyph-name="Bosch-IC-back-left-double" data-tags="Bosch-IC-back-left-double" d="M774.933 112.533l-357.333 334.933 335.467 335.467 29.867-29.867-304.533-304.533 325.333-305.067zM561.6 112.533l-357.333 334.933 335.467 335.467 29.867-29.867-304.533-304.533 325.333-305.067z" />
<glyph unicode="&#xe0a2;" glyph-name="Bosch-IC-bar-chart" data-tags="Bosch-IC-bar-chart" d="M746.667 118.933l-57.6 58.133 29.867 29.867 27.733-27.2 70.4 69.867 29.867-29.867zM768 21.333c-93.867 0-170.667 76.8-170.667 170.667s76.8 170.667 170.667 170.667 170.667-76.8 170.667-170.667-76.8-170.667-170.667-170.667zM768 320c-70.4 0-128-57.6-128-128s57.6-128 128-128 128 57.6 128 128-57.6 128-128 128zM85.333 320h42.667v-128h-42.667v128zM170.667 426.667h42.667v-234.667h-42.667v234.667zM256 533.333h42.667v-341.333h-42.667v341.333zM341.333 704h42.667v-512h-42.667v512zM426.667 789.333h42.667v-597.333h-42.667v597.333zM85.333 149.333v-42.667h486.933c-5.867 13.333-10.667 27.733-13.333 42.667h-473.6zM512 704h42.667v-512h-42.667v512zM640 362.667v170.667h-42.667v-213.333c12.267 16 26.667 30.4 42.667 42.667zM725.333 426.667h-42.667v-38.933c13.333 5.867 27.733 10.667 42.667 13.333v25.6z" />
<glyph unicode="&#xe0a3;" glyph-name="Bosch-IC-bar-chart-double" data-tags="Bosch-IC-bar-chart-double" d="M746.667 118.933l-57.6 58.133 29.867 29.867 27.733-27.2 70.4 69.867 29.867-29.867zM768 21.333c-93.867 0-170.667 76.8-170.667 170.667s76.8 170.667 170.667 170.667 170.667-76.8 170.667-170.667-76.8-170.667-170.667-170.667zM768 320c-70.4 0-128-57.6-128-128s57.6-128 128-128 128 57.6 128 128-57.6 128-128 128zM490.667 789.333h42.667v-682.667h-42.667v682.667zM85.333 469.333h362.667v-42.667h-362.667v42.667zM170.667 554.667h277.333v-42.667h-277.333v42.667zM256 640h192v-42.667h-192v42.667zM298.667 725.333h149.333v-42.667h-149.333v42.667zM170.667 384h277.333v-42.667h-277.333v42.667zM256 298.667h192v-42.667h-192v42.667zM298.667 213.333h149.333v-42.667h-149.333v42.667zM576 469.333h362.667v-42.667h-362.667v42.667zM576 554.667h277.333v-42.667h-277.333v42.667zM576 640h192v-42.667h-192v42.667zM576 725.333h149.333v-42.667h-149.333v42.667z" />
<glyph unicode="&#xe0a4;" glyph-name="Bosch-IC-battery_0" data-tags="Bosch-IC-battery_0" d="M938.667 576h-128v106.667h-725.333v-469.333h725.333v106.667h128v256zM768 256h-640v384h640v-384zM896 362.667h-85.333v170.667h85.333v-170.667z" />
<glyph unicode="&#xe0a5;" glyph-name="Bosch-IC-battery_1" data-tags="Bosch-IC-battery_1" d="M938.667 576h-128v106.667h-725.333v-469.333h725.333v106.667h128v256zM768 256h-640v384h640v-384zM896 362.667h-85.333v170.667h85.333v-170.667zM170.667 597.333h112v-298.667h-112v298.667z" />
<glyph unicode="&#xe0a6;" glyph-name="Bosch-IC-battery_2" data-tags="Bosch-IC-battery_2" d="M938.667 576h-128v106.667h-725.333v-469.333h725.333v106.667h128v256zM768 256h-640v384h640v-384zM896 362.667h-85.333v170.667h85.333v-170.667zM170.667 597.333h112v-298.667h-112v298.667zM320 597.333h106.667v-298.667h-106.667v298.667z" />
<glyph unicode="&#xe0a7;" glyph-name="Bosch-IC-battery_3" data-tags="Bosch-IC-battery_3" d="M938.667 576h-128v106.667h-725.333v-469.333h725.333v106.667h128v256zM768 256h-640v384h640v-384zM896 362.667h-85.333v170.667h85.333v-170.667zM170.667 597.333h112v-298.667h-112v298.667zM320 597.333h106.667v-298.667h-106.667v298.667zM469.333 597.333h106.667v-298.667h-106.667v298.667z" />
<glyph unicode="&#xe0a8;" glyph-name="Bosch-IC-battery_4" data-tags="Bosch-IC-battery_4" d="M938.667 576h-128v106.667h-725.333v-469.333h725.333v106.667h128v256zM768 256h-640v384h640v-384zM896 362.667h-85.333v170.667h85.333v-170.667zM170.667 597.333h112v-298.667h-112v298.667zM320 597.333h106.667v-298.667h-106.667v298.667zM469.333 597.333h106.667v-298.667h-106.667v298.667zM618.667 597.333h106.667v-298.667h-106.667v298.667z" />
<glyph unicode="&#xe0a9;" glyph-name="Bosch-IC-battery_fail" data-tags="Bosch-IC-battery_fail" d="M474.667 325.333c0-14.4-12.267-26.667-26.667-26.667-14.933 0-26.667 11.733-26.667 26.667s11.733 26.667 26.667 26.667c14.4 0 26.667-12.267 26.667-26.667zM428.8 504.533v92.8h38.4v-92.8l-10.133-114.667h-18.133l-10.133 114.667zM938.667 576h-128v106.667h-725.333v-469.333h725.333v106.667h128v256zM768 256h-640v384h640v-384zM896 362.667h-85.333v170.667h85.333v-170.667z" />
<glyph unicode="&#xe0aa;" glyph-name="Bosch-IC-battery_Li-Ion" data-tags="Bosch-IC-battery_Li-Ion" d="M938.667 576h-128v106.667h-725.333v-469.333h725.333v106.667h128v256zM768 256h-640v384h640v-384zM896 362.667h-85.333v170.667h85.333v-170.667zM170.667 487.467h40.533v-113.6h60.267v-32.533h-100.8v146.133zM327.467 477.867c0-11.2-9.067-20.267-20.8-20.267s-20.8 8.533-20.8 20.267c0 11.2 9.067 20.267 21.333 20.267 11.733-0.533 20.267-9.067 20.267-20.267zM288 448.533h37.867v-106.667h-37.867v106.667zM344.533 425.6h52.8v-34.133h-52.8v34.133zM419.733 487.467h40.533v-146.133h-40.533v146.133zM596.8 395.2c0-33.067-23.467-56.533-57.067-56.533s-56.533 22.4-56.533 55.467c0 33.6 23.467 57.067 57.6 57.067 33.067 0 56-22.933 56-56zM522.133 395.2c0-18.133 6.4-28.267 18.133-28.267 12.267 0 18.133 9.6 18.133 28.267 0 18.133-5.867 27.2-17.6 27.2-12.8 0.533-18.667-8.533-18.667-27.2zM616 448.533h37.867v-17.067c7.467 13.333 18.133 19.733 33.6 19.733 20.8 0 33.067-14.4 33.067-39.467v-70.4h-37.867v64c0 11.2-4.267 16.533-13.333 16.533-10.133 0-15.467-6.4-15.467-18.667v-61.867h-37.867v107.2z" />
<glyph unicode="&#xe0ab;" glyph-name="Bosch-IC-battery_loading" data-tags="Bosch-IC-battery_loading" d="M490.667 597.333l-128-170.667h85.333l-42.667-128 128 170.667h-85.333zM938.667 576h-128v106.667h-725.333v-469.333h725.333v106.667h128v256zM768 256h-640v384h640v-384zM896 362.667h-85.333v170.667h85.333v-170.667z" />
<glyph unicode="&#xe0ac;" glyph-name="Bosch-IC-bed" data-tags="Bosch-IC-bed" d="M853.333 490.667h-469.333c0 46.933-38.4 85.333-85.333 85.333h-85.333c-46.933 0-85.333-38.4-85.333-85.333v213.333h-42.667v-512h42.667v64h768v-64h42.667v213.333c0 46.933-38.4 85.333-85.333 85.333zM213.333 533.333h85.333c23.467 0 42.667-19.2 42.667-42.667h-170.667c0 23.467 19.2 42.667 42.667 42.667zM128 448h106.667v-149.333h-106.667v149.333zM277.333 298.667v149.333h576c23.467 0 42.667-19.2 42.667-42.667v-106.667h-618.667z" />
<glyph unicode="&#xe0ad;" glyph-name="Bosch-IC-bicycle" data-tags="Bosch-IC-bicycle" d="M768 512c-19.733 0-38.933-3.2-56.533-9.6l-79.467 158.933h93.333v42.667h-162.667l42.667-85.333h-191.467l-18.667 42.667h31.467v42.667h-128v-42.667h50.133l29.867-67.733-56-95.467c-20.267 9.067-43.2 13.867-66.667 13.867-93.867 0-170.667-76.8-170.667-170.667s76.8-170.667 170.667-170.667c86.933 0 158.933 65.067 169.067 149.333h77.333l136 232 34.133-68.8c-45.867-30.4-75.733-82.667-75.733-141.867 0-93.867 76.8-170.667 170.667-170.667s170.667 76.8 170.667 170.667-76.267 170.667-170.133 170.667zM256 213.333c-70.4 0-128 57.6-128 128s57.6 128 128 128c16 0 30.933-2.667 45.333-8l-82.667-141.333h163.2c-10.133-60.267-62.4-106.667-125.867-106.667zM382.4 362.667h-89.067l44.8 76.8c22.933-19.2 38.933-45.867 44.267-76.8zM425.067 362.667c-5.867 46.4-30.4 86.933-65.6 114.133l40 68.267 79.467-181.333-0.533-1.067h-53.333zM505.6 409.067l-73.067 166.933h171.2l-98.133-166.933zM768 213.333c-70.4 0-128 57.6-128 128 0 42.133 20.8 80 52.267 103.467l56.533-113.067 38.4 19.2-56.533 113.067c11.733 3.733 24.533 5.333 37.333 5.333 70.4 0 128-57.6 128-128s-57.6-128-128-128z" />
<glyph unicode="&#xe0ae;" glyph-name="Bosch-IC-bicycle-e" data-tags="Bosch-IC-bicycle-e" d="M768 512c-19.733 0-38.933-3.2-56.533-9.6l-79.467 158.933h93.333v42.667h-162.667l45.333-90.667-181.333-53.867-29.333 59.2h29.333v42.667h-128v-42.667h50.667l35.733-71.467-59.2-17.6-13.867-27.733c-17.067 6.933-36.267 10.133-56 10.133-93.867 0-170.667-76.8-170.667-170.667s76.8-170.667 170.667-170.667c86.933 0 158.933 65.067 169.067 149.333h77.333l136 232 34.133-68.8c-45.867-30.4-75.733-82.667-75.733-141.867 0-93.867 76.8-170.667 170.667-170.667s170.667 76.8 170.667 170.667-76.267 170.667-170.133 170.667zM356.267 494.4l48.533 14.4 73.6-146.133h-52.8c-6.4 50.133-34.133 93.867-74.667 120.533l5.333 11.2zM382.4 362.667h-91.733l41.067 82.133c26.133-19.733 44.8-48.533 50.667-82.133zM256 213.333c-70.4 0-128 57.6-128 128s57.6 128 128 128c12.8 0 25.6-2.133 37.333-5.333l-72-144h160.533c-10.133-60.267-62.4-106.667-125.867-106.667zM567.467 514.133l-36.8-10.667-43.2-64.533-41.067 81.6 150.933 44.8-29.867-51.2zM768 213.333c-70.4 0-128 57.6-128 128 0 42.133 20.8 80 52.267 103.467l56.533-113.067 38.4 19.2-56.533 113.067c11.733 3.733 24.533 5.333 37.333 5.333 70.4 0 128-57.6 128-128s-57.6-128-128-128z" />
<glyph unicode="&#xe0af;" glyph-name="Bosch-IC-blog" data-tags="Bosch-IC-blog" d="M914.133 764.8c-16 16-36.8 24.533-59.2 24.533s-43.2-8.533-59.2-24.533l-241.6-241.6-39.467-157.867 157.867 39.467 241.6 241.6c16 16 24.533 36.8 24.533 59.2s-8.533 43.2-24.533 59.2zM572.8 424.533l13.867 53.333 40-40-53.867-13.333zM885.867 678.4l-219.733-219.733-58.133 58.133 219.733 219.733c7.467 6.4 17.067 10.133 26.667 10.133 11.2 0 21.333-4.267 29.333-12.267s12.267-18.133 12.267-29.333c0-9.6-3.733-19.2-10.133-26.667zM170.667 512h320v-42.667h-320v42.667zM170.667 405.333h213.333v-42.667h-213.333v42.667zM170.667 618.667h320v-42.667h-320v42.667zM810.667 277.333h-477.333l-120-102.933v102.933h-85.333v405.333h517.867l42.667 42.667h-603.2v-490.667h85.333v-153.067l178.667 153.067h504v283.2l-42.667-42.667z" />
<glyph unicode="&#xe0b0;" glyph-name="Bosch-IC-bluetooth" data-tags="Bosch-IC-bluetooth" d="M490.667 23.467v381.867l-221.867-166.4-25.6 34.133 234.667 176-235.733 195.733 27.2 32.533 221.333-184v377.067l336-206.933-278.933-214.4 278.933-193.067-336-232.533zM533.333 407.467v-302.4l218.667 151.467-218.667 150.933zM533.333 793.6v-302.4l218.667 168-218.667 134.4z" />
<glyph unicode="&#xe0b1;" glyph-name="Bosch-IC-bluetooth-LE" data-tags="Bosch-IC-bluetooth-LE" d="M341.333 23.467v381.867l-221.867-166.4-25.6 34.133 234.667 176-235.733 195.733 27.2 32.533 221.333-184v377.067l336-206.933-278.4-214.4 278.4-193.067-336-232.533zM384 407.467v-302.4l218.667 151.467-218.667 150.933zM384 793.6v-302.4l218.667 168-218.667 134.4zM690.667 178.133h43.2v-122.133h64.533v-34.667h-108.267v156.8zM820.267 178.133h114.667v-34.133h-72.533v-26.667h52.8v-32.533h-52.8v-29.867h76.267v-34.133h-118.4v157.333z" />
<glyph unicode="&#xe0b2;" glyph-name="Bosch-IC-board-speaker" data-tags="Bosch-IC-board-speaker" d="M490.667 426.667h-362.667v320h362.667v-157.333l42.667-17.067v217.067h-448v-405.333h82.133l-39.467-277.333h42.667l40 277.333h197.333l40-277.333h42.667l-39.467 277.333h82.133v50.667l-42.667 17.067zM856 632c24 14.933 40 41.6 40 72 0 46.933-38.4 85.333-85.333 85.333s-85.333-38.4-85.333-85.333c0-30.4 16-57.067 40-72-31.467-11.733-58.133-36.267-72-68.8-5.867-13.333-50.133-123.733-51.733-128.533l39.467-16c16 39.467 46.933 117.333 51.2 127.467 13.333 30.933 44.267 51.2 78.4 51.2 46.933 0 85.333-38.4 85.333-85.333v-106.667h-42.667v-298.667h42.667v256h42.667v149.333c0 54.933-34.667 101.333-82.667 120zM810.667 661.333c-23.467 0-42.667 19.2-42.667 42.667s19.2 42.667 42.667 42.667 42.667-19.2 42.667-42.667-19.2-42.667-42.667-42.667zM725.333 405.333h42.667v-298.667h-42.667v298.667zM397.624 534.787l15.846 39.616 213.431-85.372-15.846-39.616-213.431 85.372z" />
<glyph unicode="&#xe0b3;" glyph-name="Bosch-IC-boiler-connected" data-tags="Bosch-IC-boiler-connected" d="M512 128h234.667v234.667h-234.667v-234.667zM554.667 320h149.333v-149.333h-149.333v149.333zM512.533 533.333h234.133v-42.667h-234.133v42.667zM768 640h-277.333c-46.933 0-85.333-38.4-85.333-85.333v-448c0-46.933 38.4-85.333 85.333-85.333h277.333c46.933 0 85.333 38.4 85.333 85.333v448c0 46.933-38.4 85.333-85.333 85.333zM810.667 106.667c0-23.467-19.2-42.667-42.667-42.667h-277.333c-23.467 0-42.667 19.2-42.667 42.667v448c0 23.467 19.2 42.667 42.667 42.667h277.333c23.467 0 42.667-19.2 42.667-42.667v-448zM320 682.667c0-11.782-9.551-21.333-21.333-21.333s-21.333 9.551-21.333 21.333c0 11.782 9.551 21.333 21.333 21.333s21.333-9.551 21.333-21.333zM404.267 788.267c-58.133 58.133-153.067 58.133-211.2 0l-30.4 30.4c74.667 74.667 196.8 74.667 271.467 0l-29.867-30.4zM344 728c-12.267 12.267-28.267 18.667-45.333 18.667s-33.067-6.4-45.333-18.667l-30.4 30.4c20.267 19.733 47.467 30.933 75.733 30.933s55.467-11.2 75.2-31.467l-29.867-29.867z" />
<glyph unicode="&#xe0b4;" glyph-name="Bosch-IC-book" data-tags="Bosch-IC-book" d="M576 789.333c-25.6 0-48.533-11.2-64-29.333-15.467 17.6-38.4 29.333-64 29.333h-362.667v-640h362.667c23.467 0 42.667-19.2 42.667-42.667h42.667c0 23.467 19.2 42.667 42.667 42.667h362.667v640h-362.667zM490.667 180.8c-12.8 7.467-27.2 11.2-42.667 11.2h-320v554.667h320c23.467 0 42.667-19.2 42.667-42.667v-523.2zM896 192h-320c-15.467 0-29.867-4.267-42.667-11.2v523.2c0 23.467 19.2 42.667 42.667 42.667h320v-554.667z" />
<glyph unicode="&#xe0b5;" glyph-name="Bosch-IC-bookmark" data-tags="Bosch-IC-bookmark" d="M533.333 832v42.667h-213.333v-42.667h-106.667v-810.667h597.333v810.667h-277.333zM362.667 832h128v-306.667l-64 32-64-32v306.667zM768 64h-512v725.333h64v-333.333l106.667 53.333 106.667-53.333v333.333h234.667v-725.333z" />
<glyph unicode="&#xe0b6;" glyph-name="Bosch-IC-bookmark-add" data-tags="Bosch-IC-bookmark-add" d="M789.333 277.333h-42.667v-64h-64v-42.667h64v-64h42.667v64h64v42.667h-64zM768 362.667c-93.867 0-170.667-76.8-170.667-170.667s76.8-170.667 170.667-170.667 170.667 76.8 170.667 170.667-76.8 170.667-170.667 170.667zM768 64c-70.4 0-128 57.6-128 128s57.6 128 128 128 128-57.6 128-128-57.6-128-128-128zM597.333 64h-341.333v725.333h64v-333.333l106.667 53.333 106.667-53.333v333.333h234.667v-384c14.4 0 28.8-1.6 42.667-4.267v430.933h-277.333v42.667h-213.333v-42.667h-106.667v-810.667h426.667c-16 12.267-30.4 26.667-42.667 42.667zM362.667 832h128v-306.667l-64 32-64-32v306.667z" />
<glyph unicode="&#xe0b7;" glyph-name="Bosch-IC-bookmark-check" data-tags="Bosch-IC-bookmark-check" d="M746.667 179.733l-27.733 27.2-29.867-29.867 57.6-58.133 100.267 100.8-29.867 29.867zM768 362.667c-93.867 0-170.667-76.8-170.667-170.667s76.8-170.667 170.667-170.667 170.667 76.8 170.667 170.667-76.8 170.667-170.667 170.667zM768 64c-70.4 0-128 57.6-128 128s57.6 128 128 128 128-57.6 128-128-57.6-128-128-128zM597.333 64h-341.333v725.333h64v-333.333l106.667 53.333 106.667-53.333v333.333h234.667v-384c14.4 0 28.8-1.6 42.667-4.267v430.933h-277.333v42.667h-213.333v-42.667h-106.667v-810.667h426.667c-16 12.267-30.4 26.667-42.667 42.667zM362.667 832h128v-306.667l-64 32-64-32v306.667z" />
<glyph unicode="&#xe0b8;" glyph-name="Bosch-IC-bookmark-delete" data-tags="Bosch-IC-bookmark-delete" d="M682.667 213.333h170.667v-42.667h-170.667v42.667zM768 362.667c-93.867 0-170.667-76.8-170.667-170.667s76.8-170.667 170.667-170.667 170.667 76.8 170.667 170.667-76.8 170.667-170.667 170.667zM768 64c-70.4 0-128 57.6-128 128s57.6 128 128 128 128-57.6 128-128-57.6-128-128-128zM597.333 64h-341.333v725.333h64v-333.333l106.667 53.333 106.667-53.333v333.333h234.667v-384c14.4 0 28.8-1.6 42.667-4.267v430.933h-277.333v42.667h-213.333v-42.667h-106.667v-810.667h426.667c-16 12.267-30.4 26.667-42.667 42.667zM362.667 832h128v-306.667l-64 32-64-32v306.667z" />
<glyph unicode="&#xe0b9;" glyph-name="Bosch-IC-books" data-tags="Bosch-IC-books" d="M298.667 618.667h42.667v-42.667h-42.667v42.667zM298.667 533.333h42.667v-42.667h-42.667v42.667zM298.667 448h42.667v-42.667h-42.667v42.667zM554.667 512h42.667v-42.667h-42.667v42.667zM554.667 405.333h42.667v-42.667h-42.667v42.667zM940.267 140.267l-201.067 629.867-122.133-38.933 35.733-112.533h-140.8v149.333h-128v-64h-128v85.333h-170.667v-682.667h597.333v419.2l135.467-425.067 122.133 39.467zM640 576v-341.333h-128v341.333h128zM426.667 725.333h42.667v-490.667h-42.667v490.667zM213.333 234.667h-85.333v426.667h85.333v-426.667zM213.333 746.667v-42.667h-85.333v42.667h85.333zM128 149.333v42.667h85.333v-42.667h-85.333zM384 149.333h-128v512h128v-512zM426.667 149.333v42.667h42.667v-42.667h-42.667zM512 149.333v42.667h128v-42.667h-128zM845.867 154.667l-12.8 40.533 40.533 12.8 12.8-40.533-40.533-12.8zM819.733 236.267l-123.2 386.133 40.533 12.8 123.2-386.133-40.533-12.8zM711.467 716.8l12.8-40.533-40.533-12.8-12.8 40.533 40.533 12.8z" />
<glyph unicode="&#xe0ba;" glyph-name="Bosch-IC-bookshelf" data-tags="Bosch-IC-bookshelf" d="M170.667 789.333v-682.667h42.667v85.333h597.333v-85.333h42.667v682.667h-682.667zM810.667 746.667v-234.667h-42.667v170.667h-42.667v-170.667h-42.667v128h-42.667v-128h-42.667v170.667h-42.667v-170.667h-42.667v128h-42.667v-128h-256v234.667h597.333zM645.333 234.667l-93.867 160-36.8-21.333 81.067-138.667h-126.4v128h-42.667v-128h-42.667v170.667h-42.667v-170.667h-42.667v170.667h-42.667v-170.667h-42.667v234.667h597.333v-234.667h-165.333z" />
<glyph unicode="&#xe0bb;" glyph-name="Bosch-IC-box" data-tags="Bosch-IC-box" d="M928 542.933l-81.6 136-334.4 111.467-334.4-111.467-81.6-136 74.667-25.067v-298.667l341.333-113.6 341.333 113.6v298.667l74.667 25.067zM864 566.4l-278.4-92.8-41.6 69.333 278.4 92.8 41.6-69.333zM764.8 661.333l-252.8-84.267-252.8 84.267 252.8 84.267 252.8-84.267zM201.6 635.733l278.4-92.8-41.6-69.333-278.4 92.8 41.6 69.333zM213.333 504l244.267-81.6 33.067 55.467v-320l-277.333 92.267v253.867zM810.667 250.133l-277.333-92.267v320l33.067-55.467 244.267 81.6v-253.867z" />
<glyph unicode="&#xe0bc;" glyph-name="Bosch-IC-box-closed" data-tags="Bosch-IC-box-closed" d="M512 792l-298.667-150.933v-380.8l298.667-156.8 298.667 156.8v380.8l-298.667 150.933zM731.733 633.067l-88.533-47.467-212.8 117.333 81.6 41.067 219.733-110.933zM490.667 163.2l-234.667 123.2v317.867l234.667-126.4v-314.667zM292.267 633.067l91.733 46.4 214.4-117.867-86.4-46.933-219.733 118.4zM768 286.4l-234.667-123.2v314.667l234.667 126.4v-317.867z" />
<glyph unicode="&#xe0bd;" glyph-name="Bosch-IC-box-delivery" data-tags="Bosch-IC-box-delivery" d="M512 792l-298.667-150.933v-43.733h42.667v6.933l234.667-126.4v-314.667l-234.667 123.2v12.267h-42.667v-37.867l298.667-156.8 298.667 156.8v380.267l-298.667 150.933zM731.733 633.067l-88.533-47.467-212.8 117.333 81.6 41.067 219.733-110.933zM292.267 633.067l91.733 46.4 214.4-117.867-86.4-46.933-219.733 118.4zM768 286.4l-234.667-123.2v314.667l234.667 126.4v-317.867zM85.333 554.667h170.667v-42.667h-170.667v42.667zM85.333 384h170.667v-42.667h-170.667v42.667zM128 469.333h128v-42.667h-128v42.667z" />
<glyph unicode="&#xe0be;" glyph-name="Bosch-IC-box-delivery-connected" data-tags="Bosch-IC-box-delivery-connected" d="M512 706.133l-298.667-137.6v-35.2h16.533l260.8-120.533v-313.6l-234.667 123.2v12.267h-42.667v-37.867l298.667-156.8 298.667 156.8v371.733l-298.667 137.6zM738.667 554.667l-84.8-38.933-210.133 112 68.267 31.467 226.667-104.533zM512 450.133l-226.667 104.533 109.333 50.667 210.133-112-92.8-43.2zM533.333 99.2v313.6l234.667 108.267v-299.2l-234.667-122.667zM85.333 490.667h170.667v-42.667h-170.667v42.667zM85.333 320h170.667v-42.667h-170.667v42.667zM128 405.333h128v-42.667h-128v42.667zM320 682.667c0-11.782-9.551-21.333-21.333-21.333s-21.333 9.551-21.333 21.333c0 11.782 9.551 21.333 21.333 21.333s21.333-9.551 21.333-21.333zM404.267 788.267l30.4 30.4c-74.667 74.667-196.8 74.667-271.467 0l30.4-30.4c57.6 58.133 152.533 58.133 210.667 0zM373.867 757.867c-19.733 20.267-46.933 31.467-75.2 31.467s-55.467-11.2-75.2-31.467l30.4-30.4c12.267 12.267 28.267 18.667 45.333 18.667s33.067-6.4 45.333-18.667l29.333 30.4z" />
<glyph unicode="&#xe0bf;" glyph-name="Bosch-IC-brake-disk" data-tags="Bosch-IC-brake-disk" d="M512 618.667c-93.867 0-170.667-76.8-170.667-170.667s76.8-170.667 170.667-170.667 170.667 76.8 170.667 170.667-76.8 170.667-170.667 170.667zM512 320c-70.4 0-128 57.6-128 128s57.6 128 128 128 128-57.6 128-128-57.6-128-128-128zM938.667 448c0 235.2-191.467 426.667-426.667 426.667h-21.333v-64.533c-189.867-11.2-341.333-169.067-341.333-362.133 0-200 162.667-362.667 362.667-362.667 193.067 0 350.933 151.467 362.133 341.333h64.533v21.333zM512 128c-176.533 0-320 143.467-320 320 0 169.067 132.267 308.267 298.667 319.467v-84.8h21.333c129.6 0 234.667-105.067 234.667-234.667v-21.333h84.8c-11.2-166.4-150.4-298.667-319.467-298.667zM788.267 469.333c-10.133 136-119.467 244.8-254.933 254.933v106.667c194.667-10.667 351.467-167.467 362.133-362.133h-107.2zM533.333 512c0-11.782-9.551-21.333-21.333-21.333s-21.333 9.551-21.333 21.333c0 11.782 9.551 21.333 21.333 21.333s21.333-9.551 21.333-21.333zM597.333 448c0-11.782-9.551-21.333-21.333-21.333s-21.333 9.551-21.333 21.333c0 11.782 9.551 21.333 21.333 21.333s21.333-9.551 21.333-21.333zM533.333 384c0-11.782-9.551-21.333-21.333-21.333s-21.333 9.551-21.333 21.333c0 11.782 9.551 21.333 21.333 21.333s21.333-9.551 21.333-21.333zM469.333 448c0-11.782-9.551-21.333-21.333-21.333s-21.333 9.551-21.333 21.333c0 11.782 9.551 21.333 21.333 21.333s21.333-9.551 21.333-21.333z" />
<glyph unicode="&#xe0c0;" glyph-name="Bosch-IC-briefcase" data-tags="Bosch-IC-briefcase" d="M682.667 704v85.333h-341.333v-85.333h-256v-597.333h853.333v597.333h-256zM384 746.667h256v-42.667h-256v42.667zM341.333 661.333h554.667v-128h-768v128h213.333zM682.667 490.667h64v-42.667h-64v42.667zM277.333 490.667h64v-42.667h-64v42.667zM128 149.333v341.333h106.667v-85.333h149.333v85.333h256v-85.333h149.333v85.333h106.667v-341.333h-768z" />
<glyph unicode="&#xe0c1;" glyph-name="Bosch-IC-broom" data-tags="Bosch-IC-broom" d="M798.933 21.333l-116.267 302.933c-2.133 51.733-45.867 96-106.667 114.133v372.267c0 35.2-28.8 64-64 64s-64-28.8-64-64v-372.267c-60.8-18.667-104-62.4-106.667-114.133l-116.267-302.933h573.867zM640 64v128h-42.667v-128h-64v128h-42.667v-128h-64v128h-42.667v-128h-97.067l90.133 234.667h269.333l90.133-234.667h-96.533zM490.667 448v362.667c0 11.733 9.6 21.333 21.333 21.333s21.333-9.6 21.333-21.333v-362.667h-42.667zM512 405.333c58.133 0 109.333-27.733 123.733-64h-247.467c14.4 36.267 65.6 64 123.733 64z" />
<glyph unicode="&#xe0c2;" glyph-name="Bosch-IC-broom-cloud-dirt" data-tags="Bosch-IC-broom-cloud-dirt" d="M234.667 533.333c0-11.782-9.551-21.333-21.333-21.333s-21.333 9.551-21.333 21.333c0 11.782 9.551 21.333 21.333 21.333s21.333-9.551 21.333-21.333zM682.667 618.667c0-11.782-9.551-21.333-21.333-21.333s-21.333 9.551-21.333 21.333c0 11.782 9.551 21.333 21.333 21.333s21.333-9.551 21.333-21.333zM128 320c0-11.782-9.551-21.333-21.333-21.333s-21.333 9.551-21.333 21.333c0 11.782 9.551 21.333 21.333 21.333s21.333-9.551 21.333-21.333zM810.667 768c0-11.782-9.551-21.333-21.333-21.333s-21.333 9.551-21.333 21.333c0 11.782 9.551 21.333 21.333 21.333s21.333-9.551 21.333-21.333zM938.667 490.667c0-11.782-9.551-21.333-21.333-21.333s-21.333 9.551-21.333 21.333c0 11.782 9.551 21.333 21.333 21.333s21.333-9.551 21.333-21.333zM512 704c0-11.782-9.551-21.333-21.333-21.333s-21.333 9.551-21.333 21.333c0 11.782 9.551 21.333 21.333 21.333s21.333-9.551 21.333-21.333zM386.133 409.6h-109.867v324.8c0 30.4 24.533 54.933 54.933 54.933s54.933-24.533 54.933-54.933v-324.8zM318.933 452.267h24.533v282.133c0 6.933-5.333 12.267-12.267 12.267s-12.267-5.333-12.267-12.267v-282.133zM470.4 325.867h-278.4v21.333c0 59.2 61.333 105.6 139.2 105.6s139.2-46.4 139.2-105.6v-21.333zM240.533 368.533h181.333c-13.867 24-49.6 41.6-90.667 41.6-41.067-0.533-76.8-18.133-90.667-41.6zM564.267 106.667h-466.133l95.467 248 39.467-15.467-73.067-189.867h342.4l-73.067 189.867 39.467 15.467zM309.867 245.867h42.667v-117.867h-42.667v117.867zM394.133 245.867h42.667v-113.6h-42.667v113.6zM225.6 245.867h42.667v-117.867h-42.667v117.867zM850.667 355.2c0 2.133 0 4.267 0 6.4 0 70.933-57.6 129.067-128 129.067-38.933 0-75.733-18.133-99.733-48-7.467 2.133-15.467 2.667-24 2.667-41.067 0-76.8-25.067-92.267-61.333 2.133-7.467 4.267-15.467 4.8-23.467l12.267-31.467 16.533 1.067 1.067 18.667c2.133 30.4 27.2 53.867 57.067 53.867 8 0 16-1.6 23.467-4.8l17.6-8 9.6 16.533c15.467 26.133 43.2 41.6 73.067 41.6 46.933 0 85.333-38.933 85.333-86.4 0-4.8-0.533-9.6-1.067-14.933l-2.667-16 14.933-6.933c20.8-9.067 34.133-29.867 34.133-52.8 0-32-25.6-58.133-57.067-58.133h-227.2l16.533-42.667h210.667c54.933 0 99.733 45.333 99.733 100.8 0.533 34.667-16.533 66.133-44.8 84.267z" />
<glyph unicode="&#xe0c3;" glyph-name="Bosch-IC-brush" data-tags="Bosch-IC-brush" d="M829.333 765.333c-15.467 15.467-36.267 24-58.133 24s-42.667-8.533-58.133-24l-324.8-325.333-60.267-100.8c-30.933 6.4-64.533-2.133-88.533-26.133-16.533-16.533-28.267-36.267-32.533-54.4-5.867-21.333-35.2-123.2-35.2-124.267l-10.667-37.333 37.333 10.667c1.067 0.533 102.933 29.867 124.267 35.2 18.667 4.267 38.4 16 54.4 32.533 24 24 32.533 57.6 26.133 88.533l100.8 60.267 325.333 324.8c15.467 15.467 24 36.267 24 58.133s-8.533 42.667-24 58.133zM346.667 205.333c-10.667-10.667-23.467-18.667-34.667-21.333h-0.533c-13.333-3.2-56.533-16-88.533-25.067 9.067 32 21.867 75.2 25.067 88.533v0.533c2.667 10.667 10.667 24 21.333 34.667s24.533 16 38.4 16c13.867 0 27.733-5.333 38.4-16 21.867-21.333 21.867-56 0.533-77.333zM377.067 313.067c-3.2 3.2-6.4 5.867-9.6 8.533l42.667 70.933 46.933-46.933-70.933-42.667c-3.2 3.733-6.4 6.933-9.067 10.133zM798.933 679.467l-308.267-307.733-54.933 54.933 307.733 308.267c7.467 7.467 17.067 11.733 27.733 11.733s20.267-4.267 27.733-11.733c7.467-7.467 11.733-17.067 11.733-27.733s-4.267-20.267-11.733-27.733z" />
<glyph unicode="&#xe0c4;" glyph-name="Bosch-IC-bug" data-tags="Bosch-IC-bug" d="M725.333 384h128v42.667h-128v93.333l116.267 58.133-19.2 38.4-97.067-48.533v21.333l-11.733 5.867c-1.6 0.533-16.533 8-41.6 17.067-1.067 44.267-20.267 83.733-49.6 112l35.733 53.333-35.733 23.467-34.667-52.267c-22.4 12.267-48 19.2-75.733 19.2s-52.8-6.933-75.733-19.2l-34.667 52.267-35.733-23.467 35.733-53.333c-29.867-28.267-48.533-67.733-49.6-112-25.067-8.533-40-16-41.6-17.067l-11.733-5.867v-20.8l-91.2 47.467-19.733-37.867 110.933-57.6v-93.867h-128v-42.667h128v-64c0-3.2 0-6.4 0-9.6l-118.933-78.933 23.467-35.733 102.4 68.267c24.533-90.667 107.733-157.333 205.867-157.333s180.8 66.667 205.867 156.8l97.067-67.2 24.533 35.2-113.6 78.4c0 3.2 0 6.4 0 10.133v64zM512 725.333c58.667 0 107.733-43.733 116.267-100.267-33.067 8-72.533 14.933-116.267 14.933s-83.2-6.933-116.267-14.933c8.533 56.533 57.6 100.267 116.267 100.267zM341.333 320v242.133c24 10.133 81.067 30.933 149.333 34.667v-445.867c-84.267 10.133-149.333 82.133-149.333 169.067zM682.667 320c0-86.933-65.067-158.933-149.333-169.067v445.867c68.267-3.733 125.867-24.533 149.333-34.667v-242.133z" />
<glyph unicode="&#xe0c5;" glyph-name="Bosch-IC-building" data-tags="Bosch-IC-building" d="M621.333 790.4l-450.667-112.533v-571.2h682.667v568l-232 115.733zM640 149.333v170.667h85.333v-170.667h-85.333zM810.667 149.333h-42.667v213.333h-170.667v-213.333h-384v495.467l402.667 100.8 194.667-97.6v-498.667zM256 426.667h298.667v170.667h-298.667v-170.667zM298.667 554.667h213.333v-85.333h-213.333v85.333zM597.333 426.667h170.667v170.667h-170.667v-170.667zM640 554.667h85.333v-85.333h-85.333v85.333zM256 192h298.667v170.667h-298.667v-170.667zM298.667 320h213.333v-85.333h-213.333v85.333z" />
<glyph unicode="&#xe0c6;" glyph-name="Bosch-IC-cactus" data-tags="Bosch-IC-cactus" d="M746.667 320h-85.333v85.333h42.667v42.667h-42.667v85.333h42.667v42.667h-42.667v85.333h42.667v42.667h-44.267c-3.733 25.067-13.333 48.533-28.267 68.267l34.133 34.133-30.4 30.4-34.133-34.133c-19.733 14.4-42.667 24.533-68.267 28.267v43.733h-42.667v-44.267c-25.067-3.733-48.533-13.333-68.267-28.267l-34.133 34.133-30.4-30.4 34.133-34.133c-14.4-19.733-24.533-42.667-28.267-68.267h-43.2v-42.667h42.667v-85.333h-42.667v-42.667h42.667v-85.333h-42.667v-42.667h42.667v-85.333h-85.333v-128h45.333l21.333-170.667h336.533l21.333 170.667h45.333v128.533zM533.333 787.2c48.533-10.133 85.333-52.8 85.333-104.533v-362.667h-85.333v467.2zM405.333 682.667c0 51.733 36.8 94.4 85.333 104.533v-467.2h-85.333v362.667zM320 277.333h384v-42.667h-384v42.667zM642.667 64h-261.333l-16 128h292.8l-15.467-128z" />
<glyph unicode="&#xe0c7;" glyph-name="Bosch-IC-calculate" data-tags="Bosch-IC-calculate" d="M362.667 234.667h42.667v64h64v42.667h-64v64h-42.667v-64h-64v-42.667h64zM298.667 597.333h170.667v-42.667h-170.667v42.667zM554.667 384h170.667v-42.667h-170.667v42.667zM554.667 298.667h170.667v-42.667h-170.667v42.667zM590.933 497.067l49.067 48.533 49.067-48.533 29.867 29.867-48.533 49.067 48.533 49.067-29.867 29.867-49.067-48.533-49.067 48.533-29.867-29.867 48.533-49.067-48.533-49.067zM170.667 789.333v-682.667h682.667v682.667h-682.667zM810.667 149.333h-597.333v597.333h597.333v-597.333z" />
<glyph unicode="&#xe0c8;" glyph-name="Bosch-IC-calendar" data-tags="Bosch-IC-calendar" d="M725.333 789.333v64h-42.667v-64h-341.333v64h-42.667v-64h-213.333v-682.667h853.333v682.667h-213.333zM896 149.333h-768v426.667h768v-426.667zM128 618.667v128h170.667v-37.333h42.667v37.333h341.333v-37.333h42.667v37.333h170.667v-128h-768z" />
<glyph unicode="&#xe0c9;" glyph-name="Bosch-IC-calendar-add" data-tags="Bosch-IC-calendar-add" d="M725.333 789.333v64h-42.667v-64h-341.333v64h-42.667v-64h-213.333v-682.667h486.933c-5.867 13.333-10.667 27.733-13.333 42.667h-430.933v426.667h768v-213.333c16-12.267 30.4-26.667 42.667-42.667v469.333h-213.333zM128 618.667v128h170.667v-37.333h42.667v37.333h341.333v-37.333h42.667v37.333h170.667v-128h-768zM768 362.667c-93.867 0-170.667-76.8-170.667-170.667s76.8-170.667 170.667-170.667 170.667 76.8 170.667 170.667-76.8 170.667-170.667 170.667zM768 64c-70.4 0-128 57.6-128 128s57.6 128 128 128 128-57.6 128-128-57.6-128-128-128zM789.333 277.333h-42.667v-64h-64v-42.667h64v-64h42.667v64h64v42.667h-64z" />
<glyph unicode="&#xe0ca;" glyph-name="Bosch-IC-calendar-settings" data-tags="Bosch-IC-calendar-settings" d="M725.333 789.333v64h-42.667v-64h-341.333v64h-42.667v-64h-213.333v-682.667h486.933c-5.867 13.333-10.667 27.733-13.333 42.667h-430.933v426.667h768v-213.333c16-12.267 30.4-26.667 42.667-42.667v469.333h-213.333zM128 618.667v128h170.667v-37.333h42.667v37.333h341.333v-37.333h42.667v37.333h170.667v-128h-768zM768 362.667c-93.867 0-170.667-76.8-170.667-170.667s76.8-170.667 170.667-170.667 170.667 76.8 170.667 170.667-76.8 170.667-170.667 170.667zM768 64c-70.4 0-128 57.6-128 128s57.6 128 128 128 128-57.6 128-128-57.6-128-128-128zM831.467 253.333l-17.067-9.6c-6.933 6.4-15.467 11.733-25.067 14.4v19.2h-42.667v-19.2c-9.6-3.2-18.133-8-25.067-14.4l-17.067 9.6-21.333-36.8 16.533-9.6c-1.067-4.8-1.6-9.6-1.6-14.4s0.533-9.6 1.6-14.4l-16.533-9.6 21.333-36.8 17.067 9.6c6.933-6.4 15.467-11.733 25.067-14.4v-19.2h42.667v19.2c9.6 3.2 18.133 8 25.067 14.4l17.067-9.6 21.333 36.8-16.533 9.6c1.067 4.8 1.6 9.6 1.6 14.4s-0.533 9.6-1.6 14.4l16.533 9.6-21.333 36.8zM768 165.333c-14.933 0-26.667 11.733-26.667 26.667s11.733 26.667 26.667 26.667 26.667-11.733 26.667-26.667-11.733-26.667-26.667-26.667z" />
<glyph unicode="&#xe0cb;" glyph-name="Bosch-IC-call" data-tags="Bosch-IC-call" d="M685.867 109.867c-34.667 0-191.467 9.067-348.8 166.4-171.2 171.2-166.933 341.867-166.4 355.2 0 13.867 5.867 27.2 15.467 37.333l67.733 67.733c10.133 10.133 23.467 15.467 37.867 15.467s27.733-5.333 37.867-15.467l90.667-90.667c10.133-10.133 15.467-23.467 15.467-37.867s-5.333-27.733-15.467-37.867l-52.8-52.8c-1.067-1.067-3.2-3.733-3.2-7.467v-2.133c0-4.8 3.2-50.667 78.4-126.4 76.267-76.267 122.133-78.4 126.4-78.4h2.133c3.733 0 6.4 2.133 7.467 3.2l52.8 52.8c10.133 10.133 23.467 15.467 37.867 15.467s27.733-5.333 37.867-15.467l90.667-90.667c20.8-20.8 20.8-54.4 0-75.2l-67.733-67.733c-10.133-10.133-22.933-15.467-37.333-15.467-1.6 0-3.733 0-6.933 0zM291.733 709.333c-1.6 0-4.8-0.533-7.467-3.2l-67.733-67.733c-1.067-1.067-3.2-3.733-3.2-7.467v-1.067c0-1.6-6.4-163.2 154.133-323.2 161.067-161.067 321.6-154.133 323.2-154.133h1.067c3.733 0 6.4 2.133 7.467 3.2l67.733 67.733c4.267 4.267 4.267 10.667 0 14.933l-90.667 90.667c-4.267 4.267-10.667 4.267-14.933 0l-52.8-52.8c-10.133-10.133-22.933-15.467-36.8-15.467-11.2-0.533-69.333 1.067-159.467 91.2-89.6 89.6-91.2 147.733-90.667 158.933 0 13.867 5.867 27.2 15.467 36.8l52.8 52.8c4.267 4.267 4.267 10.667 0 14.933l-90.667 90.667c-2.133 2.667-5.333 3.2-7.467 3.2z" />
<glyph unicode="&#xe0cc;" glyph-name="Bosch-IC-call-add" data-tags="Bosch-IC-call-add" d="M366.4 430.4c-159.467 160-153.6 320.533-153.067 322.133v1.067c0 3.733 2.133 6.4 3.2 7.467l67.733 67.733c4.267 4.267 10.667 4.267 14.933 0l90.133-90.133c4.267-4.267 4.267-10.667 0-14.933l-52.8-52.8c-9.6-9.6-15.467-22.933-15.467-36.8-0.533-11.2 1.067-68.8 90.667-158.933 89.6-89.6 147.2-91.2 158.933-90.667 13.867 0 27.2 5.867 36.8 15.467l52.8 52.8c2.667 2.667 5.867 3.2 7.467 3.2s4.8-0.533 7.467-3.2l51.733-51.733c13.333 2.667 27.2 4.267 41.6 4.267 4.8 0 10.133 0 14.933-0.533v0l-78.4 78.4c-10.133 10.133-23.467 15.467-37.867 15.467s-27.733-5.333-37.867-15.467l-52.8-52.8c-1.067-1.067-3.733-3.2-7.467-3.2h-2.133c-4.267 0-49.6 2.667-125.867 78.4-74.667 75.733-77.333 121.067-77.867 125.867v2.133c0 3.733 2.133 6.4 3.2 7.467l52.8 52.8c20.8 20.8 20.8 54.4 0 75.2l-90.133 90.133c-20.8 20.8-54.4 20.8-75.2 0l-67.733-67.733c-10.133-10.133-15.467-22.933-15.467-37.333-0.533-13.333-4.8-183.467 165.867-354.133 83.733-83.733 168-124.8 228.267-144.533 4.267 13.867 10.133 26.667 17.067 39.467-56 18.133-135.467 56-215.467 135.467zM768 21.333c-93.867 0-170.667 76.8-170.667 170.667s76.8 170.667 170.667 170.667 170.667-76.8 170.667-170.667-76.8-170.667-170.667-170.667zM768 320c-70.4 0-128-57.6-128-128s57.6-128 128-128 128 57.6 128 128-57.6 128-128 128zM853.333 213.333h-64v64h-42.667v-64h-64v-42.667h64v-64h42.667v64h64z" />
<glyph unicode="&#xe0cd;" glyph-name="Bosch-IC-call-remove" data-tags="Bosch-IC-call-remove" d="M366.4 430.4c-159.467 160-153.6 320.533-153.067 322.133v1.067c0 3.733 2.133 6.4 3.2 7.467l67.733 67.733c4.267 4.267 10.667 4.267 14.933 0l90.133-90.133c4.267-4.267 4.267-10.667 0-14.933l-52.8-52.8c-9.6-9.6-15.467-22.933-15.467-36.8-0.533-11.2 1.067-68.8 90.667-158.933 89.6-89.6 147.2-91.2 158.933-90.667 13.867 0 27.2 5.867 36.8 15.467l52.8 52.8c2.667 2.667 5.867 3.2 7.467 3.2s4.8-0.533 7.467-3.2l51.733-51.733c13.333 2.667 27.2 4.267 41.6 4.267 4.8 0 10.133 0 14.933-0.533v0l-78.4 78.4c-10.133 10.133-23.467 15.467-37.867 15.467s-27.733-5.333-37.867-15.467l-52.8-52.8c-1.067-1.067-3.733-3.2-7.467-3.2h-2.133c-4.267 0-49.6 2.667-125.867 78.4-74.667 75.733-77.333 121.067-77.867 125.867v2.133c0 3.733 2.133 6.4 3.2 7.467l52.8 52.8c20.8 20.8 20.8 54.4 0 75.2l-90.133 90.133c-20.8 20.8-54.4 20.8-75.2 0l-67.733-67.733c-10.133-10.133-15.467-22.933-15.467-37.333-0.533-13.333-4.8-183.467 165.867-354.133 83.733-83.733 168-124.8 228.267-144.533 4.267 13.867 10.133 26.667 17.067 39.467-56 18.133-135.467 56-215.467 135.467zM768 21.333c-93.867 0-170.667 76.8-170.667 170.667s76.8 170.667 170.667 170.667 170.667-76.8 170.667-170.667-76.8-170.667-170.667-170.667zM768 320c-70.4 0-128-57.6-128-128s57.6-128 128-128 128 57.6 128 128-57.6 128-128 128zM682.667 213.333h170.667v-42.667h-170.667v42.667z" />
<glyph unicode="&#xe0ce;" glyph-name="Bosch-IC-call-sos" data-tags="Bosch-IC-call-sos" d="M290.133 612.8c10.133-25.067 26.667-35.733 54.4-35.733s44.267 11.2 44.267 30.4c0 16.533-9.067 22.933-44.8 31.467-38.933 9.067-51.2 13.333-62.4 20.267-19.2 12.267-27.733 28.8-27.733 52.8 0 46.933 33.067 75.2 87.467 75.2 45.333 0 76.267-17.067 94.933-51.2l-44.267-20.8c-12.267 20.8-25.6 28.8-50.133 28.8-22.4 0-35.2-9.6-35.2-26.667 0-15.467 10.667-22.933 42.667-28.8 33.6-6.933 51.2-12.8 64.533-20.8 19.2-12.8 28.8-30.4 28.8-56.533 0-49.6-34.667-77.333-97.067-77.333-51.733 0-83.2 18.133-102.4 58.667l46.933 20.267zM714.667 661.333c0-75.2-49.067-128-120-128-70.4 0-118.933 51.733-118.933 126.4 0 74.133 50.133 127.467 121.067 127.467 68.8 0.533 117.867-52.267 117.867-125.867zM533.333 660.267c0-51.2 23.467-82.133 62.4-82.133s61.867 30.4 61.867 82.133c0 51.2-23.467 82.667-61.333 82.667-40 0-62.933-29.867-62.933-82.667zM787.733 612.8c10.133-25.067 26.667-35.733 54.4-35.733s44.267 11.2 44.267 30.4c0 16.533-9.067 22.933-44.8 31.467-38.933 9.067-51.2 13.333-62.4 20.267-19.2 12.267-27.733 28.8-27.733 52.8 0 46.933 33.067 75.2 87.467 75.2 45.333 0 76.267-17.067 94.933-51.2l-44.267-20.8c-12.267 20.8-25.6 28.8-50.133 28.8-22.4 0-35.2-9.6-35.2-26.667 0-15.467 10.667-22.933 42.667-28.8 33.6-6.933 51.2-12.8 64.533-20.8 19.2-12.8 28.8-30.4 28.8-56.533 0-49.6-34.667-77.333-97.067-77.333-51.733 0-83.2 18.133-102.4 58.667l46.933 20.267zM712 268.8l-90.667 90.667c-10.133 10.133-23.467 15.467-37.867 15.467s-27.733-5.333-37.867-15.467l-52.8-52.8c-1.067-1.067-3.733-3.2-7.467-3.2h-2.133c-4.267 0-50.133 2.133-126.4 78.4-61.867 62.4-74.667 104.533-77.333 120-15.467 5.867-28.8 13.867-40.533 24.533-1.6-4.8-2.667-10.133-2.667-15.467-0.533-11.2 1.067-69.333 91.2-159.467s147.733-91.733 159.467-91.2c13.867 0 27.2 5.867 36.8 15.467l52.8 52.8c4.267 4.267 10.667 4.267 14.933 0l90.667-90.667c4.267-4.267 4.267-10.667 0-14.933l-67.733-67.733c-1.067-1.067-3.733-3.2-7.467-3.2h-1.067c-1.6 0-162.133-6.933-323.2 154.133-160.533 160.533-154.667 322.133-154.667 323.2v1.067c0 3.733 2.133 6.4 3.2 7.467l67.733 67.733c2.667 2.667 5.867 3.2 7.467 3.2 1.067 0 2.667 0 4.267-1.067 0 0.533 0 1.6 0 2.133 0 14.4 2.133 28.267 5.867 40.533-3.2 0.533-6.933 1.067-10.667 1.067-14.4 0-27.733-5.333-37.867-15.467l-67.2-67.733c-10.133-10.133-15.467-22.933-15.467-37.333-0.533-13.333-4.8-184 166.4-355.2 157.333-157.333 314.133-166.4 348.8-166.4 3.2 0 5.333 0 6.4 0 13.867 0 27.2 5.867 37.333 15.467l67.733 67.733c20.8 21.333 20.8 55.467 0 76.267z" />
<glyph unicode="&#xe0cf;" glyph-name="Bosch-IC-call-team" data-tags="Bosch-IC-call-team" d="M682.133 21.333c-28.267 0-158.4 7.467-288.533 137.6v0c-140.8 140.8-138.133 282.133-137.6 293.333 0 12.267 5.333 24 14.4 33.067l55.467 55.467c9.067 9.067 20.8 13.867 33.6 13.867s24.533-4.8 33.6-13.867l74.133-74.667c9.067-9.067 13.867-20.8 13.867-33.6s-4.8-24.533-13.867-33.6l-43.2-43.2c-0.533-0.533-1.067-1.067-1.067-3.733v-2.133c0-4.8 3.733-41.067 62.933-100.267 59.733-59.733 96-62.933 100.267-62.933l1.6 0.533h0.533c2.133 0 3.2 1.067 3.733 1.067l43.2 43.2c18.667 18.667 48.533 18.667 67.2 0l74.133-74.133c9.067-9.067 13.867-20.8 13.867-33.6s-4.8-24.533-13.867-33.6l-56.533-54.933c-8.533-8.533-20.267-13.333-33.067-13.867-1.067 0-2.667 0-4.8 0zM359.467 512c-1.067 0-2.667-0.533-3.2-1.6l-56-54.933c-1.067-1.067-1.6-2.667-1.6-3.733v-1.067c0-1.067-4.8-132.267 124.8-261.867v0c130.667-130.667 260.267-124.8 261.867-124.8h1.067c2.133 0 3.2 1.067 3.733 1.067l55.467 55.467c1.6 1.6 1.6 4.8 0 6.4l-74.133 74.133c-1.6 1.6-4.8 1.6-6.4 0l-43.2-43.2c-8.533-8.533-20.267-13.333-33.067-13.867-10.667-0.533-59.2 1.6-133.333 75.733s-76.267 122.667-75.733 133.333c0 12.8 4.8 24.533 13.867 33.067l43.2 43.2c1.067 1.067 1.6 2.667 1.6 3.2s0 2.133-1.6 3.2l-74.133 75.2c-1.067 0.533-2.133 1.067-3.2 1.067zM585.6 187.2v0 0zM568 631.467c42.667 20.8 72 64.533 72 115.2 0 70.4-57.6 128-128 128s-128-57.6-128-128c0-50.667 29.333-94.4 72-115.2-26.133-8-49.6-21.333-69.333-38.4 13.333-4.267 25.6-11.2 36.267-21.867l2.133-2.133c24 17.6 54.4 28.267 86.933 28.267 82.133 0 149.333-67.2 149.333-149.333h42.667c0 86.4-57.067 159.467-136 183.467zM426.667 746.667c0 46.933 38.4 85.333 85.333 85.333s85.333-38.4 85.333-85.333-38.4-85.333-85.333-85.333-85.333 38.4-85.333 85.333zM299.733 574.933c-9.6 5.867-19.2 11.2-29.867 14.933 23.467 14.933 39.467 41.067 39.467 71.467 0 46.933-38.4 85.333-85.333 85.333s-85.333-38.4-85.333-85.333c0-30.4 16-56.533 39.467-72-53.867-18.667-92.8-70.4-92.8-130.667v-10.667h42.667v10.667c0 52.8 43.2 96 96 96 15.467 0 30.933-3.733 44.267-11.2l27.733 27.733c1.6 1.6 2.667 2.667 3.733 3.733zM224 618.667c-23.467 0-42.667 19.2-42.667 42.667s19.2 42.667 42.667 42.667 42.667-19.2 42.667-42.667-19.2-42.667-42.667-42.667zM845.867 589.333c23.467 14.933 39.467 41.6 39.467 72 0 46.933-38.4 85.333-85.333 85.333s-85.333-38.4-85.333-85.333c0-30.4 16-56.533 39.467-72-14.4-5.333-28.267-12.8-40-22.4 7.467-12.8 13.867-26.133 18.667-40 17.6 17.6 42.133 27.2 67.2 27.2 52.8 0 96-43.2 96-96v-10.667h42.667v10.667c0 60.8-38.933 112.533-92.8 131.2zM800 618.667c-23.467 0-42.667 19.2-42.667 42.667s19.2 42.667 42.667 42.667 42.667-19.2 42.667-42.667-19.2-42.667-42.667-42.667z" />
<glyph unicode="&#xe0d0;" glyph-name="Bosch-IC-call-wifi" data-tags="Bosch-IC-call-wifi" d="M746.667 448h-42.667c0 106.133-85.867 192-192 192v42.667c129.6 0 234.667-105.067 234.667-234.667zM853.333 448h-42.667c0 164.8-133.867 298.667-298.667 298.667v42.667c188.267 0 341.333-153.067 341.333-341.333zM685.867 109.867c-34.667 0-191.467 9.067-348.8 166.4-171.2 171.2-166.933 341.867-166.4 355.2 0 13.867 5.867 27.2 15.467 37.333l67.733 67.733c10.133 10.133 23.467 15.467 37.867 15.467s27.733-5.333 37.867-15.467l90.667-90.667c10.133-10.133 15.467-23.467 15.467-37.867s-5.333-27.733-15.467-37.867l-52.8-52.8c-1.067-1.067-3.2-3.733-3.2-7.467v-2.133c0-4.8 3.2-50.667 78.4-126.4 76.267-76.267 122.133-78.4 126.4-78.4h2.133c3.733 0 6.4 2.133 7.467 3.2l52.8 52.8c10.133 10.133 23.467 15.467 37.867 15.467s27.733-5.333 37.867-15.467l90.667-90.667c20.8-20.8 20.8-54.4 0-75.2l-67.733-67.733c-10.133-10.133-22.933-15.467-37.333-15.467-1.6 0-3.733 0-6.933 0zM291.733 709.333c-1.6 0-4.8-0.533-7.467-3.2l-67.733-67.733c-1.067-1.067-3.2-3.733-3.2-7.467v-1.067c0-1.6-6.4-163.2 154.133-323.2 161.067-161.067 321.6-154.133 323.2-154.133h1.067c3.733 0 6.4 2.133 7.467 3.2l67.733 67.733c4.267 4.267 4.267 10.667 0 14.933l-90.667 90.667c-4.267 4.267-10.667 4.267-14.933 0l-52.8-52.8c-10.133-10.133-22.933-15.467-36.8-15.467-11.2-0.533-69.333 1.067-159.467 91.2-89.6 89.6-91.2 147.733-90.667 158.933 0 13.867 5.867 27.2 15.467 36.8l52.8 52.8c4.267 4.267 4.267 10.667 0 14.933l-90.667 90.667c-2.133 2.667-5.333 3.2-7.467 3.2z" />
<glyph unicode="&#xe0d1;" glyph-name="Bosch-IC-camera" data-tags="Bosch-IC-camera" d="M699.2 661.333l-21.333 85.333h-331.733l-21.333-85.333h-239.467v-554.667h853.333v554.667h-239.467zM896 149.333h-768v469.333h229.867l21.333 85.333h265.6l21.333-85.333h229.867v-469.333zM512 576c-106.133 0-192-85.867-192-192s85.867-192 192-192 192 85.867 192 192-85.867 192-192 192zM512 234.667c-82.133 0-149.333 67.2-149.333 149.333s67.2 149.333 149.333 149.333 149.333-67.2 149.333-149.333-67.2-149.333-149.333-149.333z" />
<glyph unicode="&#xe0d2;" glyph-name="Bosch-IC-camera-switch" data-tags="Bosch-IC-camera-switch" d="M768 64c-36.8 0-71.467 16-95.467 42.667h52.8v42.667h-128v-128h42.667v57.6c32-36.267 78.933-57.6 128-57.6 93.867 0 170.667 76.8 170.667 170.667h-42.667c0-70.4-57.6-128-128-128zM896 362.667v-57.6c-32 36.267-78.933 57.6-128 57.6-93.867 0-170.667-76.8-170.667-170.667h42.667c0 70.4 57.6 128 128 128 36.8 0 71.467-16 95.467-42.667h-52.8v-42.667h128v128h-42.667zM561.067 242.667c-15.467-5.333-32-8-49.067-8-82.133 0-149.333 67.2-149.333 149.333s67.2 149.333 149.333 149.333 149.333-67.2 149.333-149.333c0-2.667 0-4.8 0-7.467 13.333 8 27.733 13.867 42.667 18.667-6.4 100.8-90.133 180.8-192 180.8-106.133 0-192-85.867-192-192s85.867-192 192-192c14.933 0 28.8 1.6 42.667 4.8 0.533 16 2.667 31.467 6.4 45.867zM554.667 149.333h-426.667v469.333h229.867l21.333 85.333h265.6l21.333-85.333h229.867v-213.333h42.667v256h-239.467l-21.333 85.333h-331.733l-21.333-85.333h-239.467v-554.667h469.333z" />
<glyph unicode="&#xe0d3;" glyph-name="Bosch-IC-car" data-tags="Bosch-IC-car" d="M362.667 320h-90.667c-32.533 0-58.667 26.133-58.667 58.667v10.667c0 32.533 26.133 58.667 58.667 58.667h2.667c0 0 65.6-8 90.667-10.667 34.667-4.267 56-26.667 56-58.667 0-32.533-26.133-58.667-58.667-58.667zM270.933 405.333c-8.533-0.533-14.933-7.467-14.933-16v-10.667c0-9.067 6.933-16 16-16h90.667c9.067 0 16 6.933 16 16 0 5.333 0 13.867-18.667 16-22.4 2.667-78.933 9.6-89.067 10.667zM864 106.667h-92.267l-1.6 0.533c-10.667 1.6-44.8 14.933-49.067 106.133h-417.6c-2.133-37.867-11.733-100.267-49.067-106.133l-1.6-0.533h-92.8c-48 0-53.333 89.6-53.333 128v149.333c0 32.533 13.333 64.533 26.133 87.467-29.867 7.467-47.467 35.2-47.467 61.867 0 44.267 36.267 60.8 55.467 64h78.933c9.6 26.133 32.533 81.067 61.867 119.467 23.467 33.6 69.867 56 138.667 66.667 45.867 6.933 85.867 5.867 91.733 5.867s46.4 1.067 92.267-6.4c68.267-10.667 114.667-33.067 138.133-66.667 29.333-37.867 52.267-93.333 61.867-119.467h78.933c19.2-2.667 55.467-19.733 55.467-64 0-26.667-17.6-54.4-47.467-61.867 12.8-22.933 26.133-54.4 26.133-87.467v-149.333c0-37.867-5.333-127.467-53.333-127.467zM779.2 149.333h81.6c5.333 8 13.867 37.333 13.867 85.333v149.333c0 37.867-27.2 80-37.867 93.333l-27.733 34.667h65.6c15.467 0 21.333 12.8 21.333 21.333 0 15.467-11.733 19.733-18.133 21.333h-104l-4.8 14.4c0 0.533-26.133 77.333-60.8 121.6l-0.533 1.067c-34.133 49.067-152.533 56-195.2 54.933h-1.067c-42.667 1.067-161.067-5.867-195.2-54.933l-0.533-1.067c-34.667-44.8-60.267-121.067-60.8-121.6l-4.8-14.4h-104c-5.867-1.067-18.133-5.867-18.133-21.333 0-8.533 5.867-21.333 21.333-21.333h65.6l-27.733-34.667c0-0.533-37.867-48.533-37.867-93.333v-149.333c0-48 8.533-77.333 13.867-85.333h81.6c4.267 4.8 16.533 24.533 16.533 85.333v21.333h501.333v-21.333c0-60.8 12.267-80.533 16.533-85.333zM752 320h-90.667c-32.533 0-58.667 26.133-58.667 58.667 0 32 21.333 54.4 56 58.667 25.067 2.667 90.667 10.667 90.667 10.667h2.667c32.533 0 58.667-26.133 58.667-58.667v-10.667c0-32.533-26.133-58.667-58.667-58.667zM753.067 405.333c-10.133-1.067-66.667-8-89.067-10.667-18.667-2.133-18.667-10.667-18.667-16 0-9.067 6.933-16 16-16h90.667c9.067 0 16 6.933 16 16v10.667c0 8.533-6.4 15.467-14.933 16z" />
<glyph unicode="&#xe0d4;" glyph-name="Bosch-IC-car-clock" data-tags="Bosch-IC-car-clock" d="M826.133 298.667h-122.133v152.533h42.667v-109.867h79.467zM720 106.667c-117.867 0-213.333 95.467-213.333 213.333s95.467 213.333 213.333 213.333 213.333-95.467 213.333-213.333-95.467-213.333-213.333-213.333zM720 490.667c-93.867 0-170.667-76.8-170.667-170.667s76.8-170.667 170.667-170.667 170.667 76.8 170.667 170.667-76.8 170.667-170.667 170.667zM362.667 320h-90.667c-32.533 0-58.667 26.133-58.667 58.667v10.667c0 32.533 26.133 58.667 58.667 58.667h2.667c0 0 65.6-8 90.667-10.667 34.667-4.267 56-26.667 56-58.667 0-32.533-26.133-58.667-58.667-58.667zM270.933 405.333c-8.533-0.533-14.933-7.467-14.933-16v-10.667c0-9.067 6.933-16 16-16h90.667c9.067 0 16 6.933 16 16 0 5.333 0 13.867-18.667 16-22.4 2.667-78.933 9.6-89.067 10.667zM261.333 256v-21.333c0-60.8-12.267-80.533-16.533-85.333h-81.6c-5.333 8-13.867 37.333-13.867 85.333v149.333c0 44.8 37.867 92.8 37.867 93.333l27.733 34.667h-65.6c-15.467 0-21.333 12.8-21.333 21.333 0 15.467 11.733 20.267 18.133 21.333h104l4.8 14.4c0 0.533 26.133 76.8 60.8 121.6l0.533 1.067c34.133 49.067 152.533 56 195.2 54.933h1.067c42.667 1.6 161.067-5.867 195.2-54.933l0.533-1.067c31.467-40.533 55.467-106.667 59.733-119.467 18.667-3.733 36.8-9.067 53.867-16.533h56c6.4-1.6 18.133-5.867 18.133-21.333 0-5.867-3.2-14.4-10.133-18.667 11.2-9.6 21.333-19.733 30.4-30.4 14.4 12.267 22.4 30.933 22.4 49.067 0 44.267-36.267 60.8-55.467 64h-78.933c-9.6 26.133-32.533 81.067-61.867 119.467-23.467 33.6-69.867 56-138.133 66.667-45.867 6.933-86.4 5.867-92.267 5.867s-45.867 1.067-91.733-6.4c-68.267-10.667-115.2-33.067-138.667-66.667-29.333-37.867-52.267-92.8-61.867-118.933h-78.933c-19.2-3.2-55.467-19.733-55.467-64 0-26.667 17.6-54.4 47.467-61.867-12.8-22.933-26.133-54.933-26.133-87.467v-149.333c0-38.4 5.333-128 53.333-128h92.267l1.6 0.533c37.867 6.4 46.933 68.267 49.067 106.133h184c-6.4 13.867-11.2 27.733-15.467 42.667h-210.133z" />
<glyph unicode="&#xe0d5;" glyph-name="Bosch-IC-car-connected" data-tags="Bosch-IC-car-connected" d="M362.667 320h-90.667c-32.533 0-58.667 26.133-58.667 58.667v10.667c0 32.533 26.133 58.667 58.667 58.667h2.667c0 0 65.6-8 90.667-10.667 34.667-4.267 56-26.667 56-58.667 0-32.533-26.133-58.667-58.667-58.667zM270.933 405.333c-8.533-0.533-14.933-7.467-14.933-16v-10.667c0-9.067 6.933-16 16-16h90.667c9.067 0 16 6.933 16 16 0 5.333 0 13.867-18.667 16-22.4 2.667-78.933 9.6-89.067 10.667zM752 320h-90.667c-32.533 0-58.667 26.133-58.667 58.667 0 32 21.333 54.4 56 58.667 25.067 2.667 90.667 10.667 90.667 10.667h2.667c32.533 0 58.667-26.133 58.667-58.667v-10.667c0-32.533-26.133-58.667-58.667-58.667zM753.067 405.333c-10.133-1.067-66.667-8-89.067-10.667-18.667-2.133-18.667-10.667-18.667-16 0-9.067 6.933-16 16-16h90.667c9.067 0 16 6.933 16 16v10.667c0 8.533-6.4 15.467-14.933 16zM320 682.667c0-11.782-9.551-21.333-21.333-21.333s-21.333 9.551-21.333 21.333c0 11.782 9.551 21.333 21.333 21.333s21.333-9.551 21.333-21.333zM404.267 788.267c-58.133 58.133-153.067 58.133-211.2 0l-30.4 30.4c74.667 74.667 196.8 74.667 271.467 0l-29.867-30.4zM344 728c-12.267 12.267-28.267 18.667-45.333 18.667s-33.067-6.4-45.333-18.667l-30.4 30.4c20.267 19.733 47.467 30.933 75.733 30.933s55.467-11.2 75.2-31.467l-29.867-29.867zM938.667 533.333c0 44.267-36.267 60.8-55.467 64h-78.933c-9.6 26.133-32.533 81.067-61.867 119.467-23.467 33.6-69.867 56-138.133 66.667-45.867 6.933-86.4 5.867-92.267 5.867-3.733 0-22.4 0.533-47.467-1.6l-49.067-49.067c37.333 6.933 75.2 8.533 96 7.467h1.067c42.667 1.6 161.067-5.867 195.2-54.933l0.533-1.067c34.667-44.267 60.267-121.067 60.8-121.6l4.8-14.4h104c6.4-1.6 18.133-5.867 18.133-21.333 0-8.533-5.867-21.333-21.333-21.333h-65.6l27.733-34.667c10.667-13.333 37.867-55.467 37.867-93.333v-149.333c0-48-8.533-77.333-13.867-85.333h-81.6c-4.267 4.8-16.533 24.533-16.533 85.333v21.333h-501.333v-21.333c0-60.8-12.267-80.533-16.533-85.333h-81.6c-5.333 8-13.867 37.333-13.867 85.333v149.333c0 44.8 37.867 92.8 37.867 93.333l27.733 34.667h-65.6c-15.467 0-21.333 12.8-21.333 21.333 0 15.467 11.733 20.267 18.133 21.333h104l4.8 14.4c0 0.533 8 24.533 21.333 53.333-8.533 3.2-16.533 8-22.933 14.933-4.267 4.267-8 9.067-10.667 14.4-10.133-21.333-18.133-41.6-22.933-54.4h-78.933c-19.2-2.667-55.467-19.2-55.467-63.467 0-26.667 17.6-54.4 47.467-61.867-12.8-22.933-26.133-54.933-26.133-87.467v-149.333c0-38.4 5.333-128 53.333-128h92.267l1.6 0.533c37.867 6.4 46.933 68.267 49.067 106.133h417.067c4.8-91.2 38.4-104.533 49.067-106.133l1.6-0.533h93.333c48 0 53.333 89.6 53.333 128v149.333c0 32.533-13.333 64.533-26.133 87.467 29.867 7.467 47.467 35.2 47.467 61.867z" />
<glyph unicode="&#xe0d6;" glyph-name="Bosch-IC-car-locator" data-tags="Bosch-IC-car-locator" d="M277.333 587.2c-51.2 0-92.267 42.133-92.267 93.333 0 51.733 41.6 93.333 92.267 93.333s92.267-42.133 92.267-93.333c0-51.733-41.067-93.333-92.267-93.333zM277.333 731.2c-27.2 0-49.6-22.933-49.6-50.667s22.4-50.667 49.6-50.667 49.6 22.933 49.6 50.667c0 27.733-22.4 50.667-49.6 50.667zM277.333 277.333l-18.667 31.467c-1.067 2.133-117.333 201.6-141.867 244.8-20.267 33.067-31.467 78.933-31.467 126.933 0 107.2 85.867 194.133 192 194.133s192-86.933 192-194.133c0-47.467-11.2-93.867-31.467-126.4-25.067-43.2-140.8-242.667-141.867-244.8l-18.667-32zM277.333 832c-82.133 0-149.333-68.267-149.333-151.467 0-39.467 9.6-78.4 25.067-104l0.533-0.533c18.667-32.533 89.6-154.667 123.733-213.333 34.133 58.667 105.067 180.8 123.733 213.333l0.533 0.533c16 25.6 25.067 64.533 25.067 104 0 83.2-67.2 151.467-149.333 151.467zM752 298.667h-90.667c-32.533 0-58.667 26.133-58.667 58.667 0 32 21.333 54.4 56 58.667 25.067 2.667 90.667 10.667 90.667 10.667h2.667c32.533 0 58.667-26.133 58.667-58.667v-10.667c0-32.533-26.133-58.667-58.667-58.667zM753.067 384c-10.133-1.067-66.667-8-89.067-10.667-18.667-2.133-18.667-10.667-18.667-16 0-9.067 6.933-16 16-16h90.667c9.067 0 16 6.933 16 16v10.667c0 8.533-6.4 15.467-14.933 16zM938.667 448c0 44.267-36.267 60.8-55.467 64h-78.933c-9.6 26.133-32.533 81.067-61.867 119.467-23.467 33.6-69.867 56-138.133 66.667-45.867 6.4-86.4 5.867-92.267 5.867 0 0-0.533 0-1.067 0 0.533-6.933 1.067-14.4 1.067-21.333s-0.533-13.867-0.533-21.333c0 0 0 0 0 0h1.067c42.667 1.6 161.067-5.867 195.2-54.933l0.533-1.067c34.667-44.267 60.267-121.067 60.8-121.6l4.8-14.4h104c6.4-1.6 18.133-5.867 18.133-21.333 0-8.533-5.867-21.333-21.333-21.333h-65.6l27.733-34.667c10.667-13.333 37.867-55.467 37.867-93.333v-149.333c0-48-8.533-77.333-13.867-85.333h-81.6c-4.267 4.8-16.533 24.533-16.533 85.333v21.333h-501.333v-21.333c0-60.8-12.267-80.533-16.533-85.333h-81.6c-5.333 8-13.867 37.333-13.867 85.333v149.333c0 26.667 13.333 54.4 24 72.533-10.667 18.667-22.4 38.4-33.067 57.067-8.533 3.733-12.267 12.8-12.267 19.733 0 0.533 0 1.067 0 1.6-9.067 16-17.6 30.933-25.067 43.2-10.133-10.133-17.6-24.533-17.6-44.8 0-26.667 17.6-54.4 47.467-61.867-12.8-22.933-26.133-54.4-26.133-87.467v-149.333c0-38.4 5.333-128 53.333-128h92.267l1.6 0.533c37.867 6.4 46.933 68.267 49.067 106.133h417.067c4.8-91.2 38.4-104.533 49.067-106.133l1.6-0.533h93.333c48 0 53.333 89.6 53.333 128v149.333c0 32.533-13.333 64.533-26.133 87.467 29.867 7.467 47.467 35.2 47.467 61.867zM412.8 512.533l1.067-0.533c1.067 2.133 2.667 4.8 3.733 6.933-1.6-2.133-3.2-4.267-4.8-6.4z" />
<glyph unicode="&#xe0d7;" glyph-name="Bosch-IC-car-mechanic" data-tags="Bosch-IC-car-mechanic" d="M874.667 106.667h-42.667v442.133l10.667 6.4c33.067 19.2 53.333 54.4 53.333 92.267 0 34.133-16.533 65.6-42.667 85.333v-85.333c0-35.2-28.8-64-64-64s-64 28.8-64 64v85.333c-26.133-19.733-42.667-51.2-42.667-85.333 0-37.867 20.267-73.067 53.333-92.267l10.667-6.4v-442.133h-42.667v418.133c-40 27.733-64 73.6-64 122.667 0 62.933 40 120 99.733 140.8l28.267 10.133v-150.933c0-11.733 9.6-21.333 21.333-21.333s21.333 9.6 21.333 21.333v150.933l28.267-10.133c59.733-20.8 99.733-77.867 99.733-140.8 0-49.067-24-94.933-64-122.667v-418.133zM512 789.333c-5.867 0-45.867 1.067-91.733-6.4-68.267-10.667-115.2-33.067-138.667-66.667-29.333-37.867-52.267-92.8-61.867-118.933h-78.933c-19.2-3.2-55.467-19.733-55.467-64 0-26.667 17.6-54.4 47.467-61.867-12.8-22.933-26.133-54.933-26.133-87.467v-149.333c0-38.4 5.333-128 53.333-128h92.267l1.6 0.533c37.867 6.4 46.933 68.267 49.067 106.133h358.4v42.667h-400v-21.333c0-60.8-12.267-80.533-16.533-85.333h-81.6c-5.333 8-13.867 37.333-13.867 85.333v149.333c0 44.8 37.867 92.8 37.867 93.333l27.733 34.667h-65.6c-15.467 0-21.333 12.8-21.333 21.333 0 15.467 11.733 20.267 18.133 21.333h104l4.8 14.4c0 0.533 26.133 76.8 60.8 121.6l0.533 1.067c34.133 49.067 152.533 56 195.2 54.933h1.067c0.533 0 52.267 1.6 104-9.067 6.933 13.333 16 26.133 26.133 37.867-59.733 14.933-123.2 13.867-130.667 13.867zM362.667 320h-90.667c-32.533 0-58.667 26.133-58.667 58.667v10.667c0 32.533 26.133 58.667 58.667 58.667h2.667c0 0 65.6-8 90.667-10.667 34.667-4.267 56-26.667 56-58.667 0-32.533-26.133-58.667-58.667-58.667zM270.933 405.333c-8.533-0.533-14.933-7.467-14.933-16v-10.667c0-9.067 6.933-16 16-16h90.667c9.067 0 16 6.933 16 16 0 5.333 0 13.867-18.667 16-22.4 2.667-78.933 9.6-89.067 10.667z" />
<glyph unicode="&#xe0d8;" glyph-name="Bosch-IC-car-rental" data-tags="Bosch-IC-car-rental" d="M855.467 789.333h-218.133c-45.333 0-82.667-37.333-82.667-83.2v-154.133c0-45.867 37.333-83.2 83.2-83.2h23.467v-309.867l85.333-57.067 85.333 57.067v310.4h23.467c45.867 0 83.2 37.333 83.2 83.2v153.6c0 45.867-37.333 83.2-83.2 83.2zM789.333 181.867l-42.667-28.267-42.667 28.267v287.467h85.333v-287.467zM896 552.533c0-22.4-18.133-40.533-40.533-40.533h-217.6c-22.4 0-40.533 18.133-40.533 40.533v153.6c0 22.4 18.133 40.533 40.533 40.533h218.133c22.4 0 40.533-18.133 40.533-40.533v-153.6zM274.667 448h-2.667c-32.533 0-58.667-26.133-58.667-58.667v-10.667c0-32.533 26.133-58.667 58.667-58.667h90.667c32.533 0 58.667 26.133 58.667 58.667 0 32-21.333 54.4-56 58.667-25.067 2.667-90.667 10.667-90.667 10.667zM378.667 378.667c0-9.067-6.933-16-16-16h-90.667c-9.067 0-16 6.933-16 16v10.667c0 8.533 6.4 15.467 14.933 16 10.133-1.067 66.667-8 89.067-10.667 18.667-2.133 18.667-10.667 18.667-16zM261.333 234.667c0-60.8-12.267-80.533-16.533-85.333h-81.6c-5.333 8-13.867 37.333-13.867 85.333v149.333c0 44.8 37.867 92.8 37.867 93.333l27.733 34.667h-65.6c-15.467 0-21.333 12.8-21.333 21.333 0 15.467 11.733 20.267 18.133 21.333h104l4.8 14.4c0 0.533 26.133 76.8 60.8 121.6l0.533 1.067c34.133 49.067 152.533 56 195.2 54.933h7.467c5.333 16 13.867 30.4 24.533 42.667h-30.933c-4.267 0-44.8 1.067-92.267-6.4-68.267-10.667-115.2-33.067-138.667-66.667-29.333-37.867-52.267-92.8-61.867-118.933h-78.933c-19.2-3.2-55.467-19.733-55.467-64 0-26.667 17.6-54.4 47.467-61.867-12.8-22.933-26.133-54.933-26.133-87.467v-149.333c0-38.4 5.333-128 53.333-128h92.267l1.6 0.533c37.867 6.4 46.933 68.267 49.067 106.133h315.733v42.667h-357.333v-21.333z" />
<glyph unicode="&#xe0d9;" glyph-name="Bosch-IC-car-seat-connected" data-tags="Bosch-IC-car-seat-connected" d="M320 682.667c0-11.782-9.551-21.333-21.333-21.333s-21.333 9.551-21.333 21.333c0 11.782 9.551 21.333 21.333 21.333s21.333-9.551 21.333-21.333zM404.267 788.267c-58.133 58.133-153.067 58.133-211.2 0l-30.4 30.4c74.667 74.667 196.8 74.667 271.467 0l-29.867-30.4zM344 728c-12.267 12.267-28.267 18.667-45.333 18.667s-33.067-6.4-45.333-18.667l-30.4 30.4c20.267 19.733 47.467 30.933 75.733 30.933s55.467-11.2 75.2-31.467l-29.867-29.867zM768 211.733l66.667 577.6h-24c-72.533 0-134.4-49.6-150.4-120.533l-74.133-281.067v-1.067c-5.333-24-8.533-48-9.067-72.533-77.333 12.267-157.867 13.867-197.333 4.267-54.933-13.867-80-64.533-80-106.133 0-31.467 17.067-59.2 42.667-73.6v-117.333h405.333v132.267c12.267 14.4 19.733 34.133 20.267 58.133zM627.2 377.6l74.133 281.067v1.067c9.6 43.2 43.2 75.733 84.8 84.8l-55.467-478.4c-26.133 17.6-67.2 30.933-112.533 41.067 1.067 23.467 3.733 46.933 9.067 70.4zM389.333 277.333c62.933 15.467 253.867-3.733 318.933-47.467 9.6-6.4 16-13.333 17.067-18.667-0.533-30.933-21.333-38.4-35.2-40.533h-312c-20.8 3.2-36.8 20.8-36.8 42.133 0 25.6 14.933 56.533 48 64.533zM704 64h-320v63.467h298.667c3.2 0 6.933 0 10.133 0.533h11.2v-64z" />
<glyph unicode="&#xe0da;" glyph-name="Bosch-IC-car-side" data-tags="Bosch-IC-car-side" d="M938.667 426.667c0 33.067-27.2 65.067-58.667 70.4l-199.467 35.2-79.467 58.133c-25.6 18.667-56 28.8-88 28.8h-235.733c-117.333 0-192-134.933-192-192v-100.8l65.6-21.867c7.467-39.467 42.133-69.333 83.733-69.333 39.467 0 73.067 27.2 82.667 64h347.2c9.6-36.8 42.667-64 82.667-64s73.067 27.2 82.667 64h108.8v127.467zM234.667 277.333c-23.467 0-42.667 19.2-42.667 42.667s19.2 42.667 42.667 42.667 42.667-19.2 42.667-42.667-19.2-42.667-42.667-42.667zM746.667 277.333c-23.467 0-42.667 19.2-42.667 42.667s19.2 42.667 42.667 42.667 42.667-19.2 42.667-42.667-19.2-42.667-42.667-42.667zM896 341.333h-66.667c-9.6 36.8-42.667 64-82.667 64s-73.067-27.2-82.667-64h-346.667c-9.6 36.8-42.667 64-82.667 64-37.333 0-68.8-24-80.533-57.6l-26.133 8.533v70.4c0 30.933 56 149.333 149.333 149.333h235.733c22.933 0 44.267-6.933 62.933-20.267l87.467-64 209.067-36.8c12.8-2.133 23.467-17.6 23.467-28.267v-85.333z" />
<glyph unicode="&#xe0db;" glyph-name="Bosch-IC-car-side-user" data-tags="Bosch-IC-car-side-user" d="M234.667 106.667c-46.933 0-85.333 38.4-85.333 85.333s38.4 85.333 85.333 85.333 85.333-38.4 85.333-85.333-38.4-85.333-85.333-85.333zM234.667 234.667c-23.467 0-42.667-19.2-42.667-42.667s19.2-42.667 42.667-42.667 42.667 19.2 42.667 42.667-19.2 42.667-42.667 42.667zM746.667 106.667c-46.933 0-85.333 38.4-85.333 85.333s38.4 85.333 85.333 85.333 85.333-38.4 85.333-85.333-38.4-85.333-85.333-85.333zM746.667 234.667c-23.467 0-42.667-19.2-42.667-42.667s19.2-42.667 42.667-42.667 42.667 19.2 42.667 42.667-19.2 42.667-42.667 42.667zM298.667 213.333h384v-42.667h-384v42.667zM469.333 341.333c-41.067 0-74.667 33.6-74.667 74.667s33.6 74.667 74.667 74.667 74.667-33.6 74.667-74.667-33.6-74.667-74.667-74.667zM469.333 448c-17.6 0-32-14.4-32-32s14.4-32 32-32 32 14.4 32 32-14.4 32-32 32zM576 277.333h-42.667c0 35.2-28.8 64-64 64s-64-28.8-64-64h-42.667c0 58.667 48 106.667 106.667 106.667s106.667-48 106.667-106.667zM277.333 490.667c-117.333 0-192-134.933-192-192v-100.8l78.4-26.133 13.333 40.533-49.6 16.533v69.867c0 30.933 56 149.333 149.333 149.333h78.933c4.267 16 12.267 30.4 22.4 42.667h-100.8zM880 369.067l-199.467 35.2-79.467 58.133c-10.667 7.467-21.867 13.867-33.6 18.133 11.733-17.6 18.667-38.4 19.2-60.8l76.8-56 209.067-36.8c12.8-2.133 23.467-17.6 23.467-28.267v-85.333h-85.333v-42.667h128v128c0 33.067-27.2 65.067-58.667 70.4z" />
<glyph unicode="&#xe0dc;" glyph-name="Bosch-IC-cart" data-tags="Bosch-IC-cart" d="M853.333 400l-145.067 41.6 37.867 150.4-41.6 10.133-37.333-149.333-73.6 21.333c-19.733 5.333-40 1.6-56-10.667s-25.6-30.933-25.6-51.2v-220.267h-128l18.133 257.6c2.133 33.6-21.867 62.933-54.933 67.733l-13.333 2.133 7.467 42.667 42.667-7.467 6.933 42.133-126.4 21.333-6.933-42.133 42.133-6.933-7.467-43.733-11.733 1.6c-17.067 2.667-34.133-2.133-48-12.267-13.867-10.667-22.4-25.6-24.533-42.667l-40-322.667h74.133c12.267-25.067 37.867-42.667 67.2-42.667s55.467 17.6 67.2 42.667h291.733c12.267-25.067 37.867-42.667 67.2-42.667s55.467 17.6 67.2 42.667h50.133l0.533 250.667zM235.733 192h-19.2l34.133 274.133c0.533 5.867 3.733 10.667 8 14.4 4.8 3.733 10.133 4.8 16 4.267l67.2-9.6c11.2-1.6 19.2-11.733 18.133-22.4l-14.933-205.867c-10.667 5.867-22.933 9.067-35.733 9.067-37.333 0-68.8-27.733-73.6-64zM309.333 149.333c-17.6 0-32 14.4-32 32s14.4 32 32 32 32-14.4 32-32-14.4-32-32-32zM736 149.333c-17.6 0-32 14.4-32 32s14.4 32 32 32 32-14.4 32-32-14.4-32-32-32zM810.667 192h-1.067c-5.333 36.267-36.267 64-73.6 64s-68.8-27.733-73.6-64h-107.733v220.8c0 6.933 3.2 12.8 8.533 17.067s12.267 5.333 18.667 3.733l228.8-65.6v-176z" />
<glyph unicode="&#xe0dd;" glyph-name="Bosch-IC-certificate" data-tags="Bosch-IC-certificate" d="M938.667 277.333h-85.333v42.667h42.667v426.667h-768v-426.667h384v-42.667h-426.667v512h853.333zM810.667 105.067l-128 102.4-128-102.4v257.6h42.667v-169.067l85.333 68.267 85.333-68.267v169.067h42.667zM723.733 380.8c-10.667 0-20.8 4.267-28.8 8.533-3.733 1.6-9.6 4.8-12.267 4.8-2.133 0-8.533-2.667-11.733-4.8-11.2-5.333-25.067-11.733-40.533-6.4-16 5.333-24 19.2-29.333 29.867-2.133 3.733-4.8 9.067-6.4 10.133s-7.467 2.133-11.733 3.2c-11.733 2.133-27.2 5.333-37.333 18.667-9.6 13.333-8 29.333-6.4 41.067 0.533 4.267 1.067 10.667 0.533 12.267s-4.8 5.867-7.467 9.067c-8 8.533-19.2 20.8-19.2 37.333 0 17.067 11.2 28.8 19.2 37.333 2.667 2.667 6.933 7.467 7.467 9.067s0 8-0.533 12.267c-1.6 11.733-3.2 27.733 6.4 41.067s25.6 16.533 37.333 18.667c4.267 0.533 10.133 2.133 11.733 3.2s4.267 6.4 6.4 10.133c5.867 10.133 13.867 24.533 29.333 29.867 15.467 4.8 29.333-1.6 40.533-6.4 3.733-1.6 9.6-4.8 12.267-4.8 2.133 0 8.533 2.667 11.733 4.8 11.2 5.333 25.067 11.733 40.533 6.4 16-5.333 24-19.2 29.333-29.867 2.133-3.733 4.8-9.067 6.4-10.133s7.467-2.133 11.733-3.2c11.733-2.133 27.2-5.333 37.333-18.667 9.6-13.333 8-29.333 6.4-41.067-0.533-4.267-1.067-10.667-0.533-12.267s4.8-5.867 7.467-9.067c8-8.533 19.2-20.8 19.2-37.333 0-17.067-11.2-28.8-19.2-37.333-2.667-2.667-6.933-7.467-7.467-9.067s0-8 0.533-12.267c1.6-11.733 3.2-27.733-6.4-41.067s-25.6-16.533-37.333-18.667c-4.267-0.533-10.133-2.133-11.733-3.2s-4.267-6.4-6.4-10.133c-5.867-10.133-13.867-24.533-29.333-29.867-4.267-1.6-8-2.133-11.733-2.133zM720.533 422.4v0 0zM641.6 423.467v0 0zM682.667 436.267c11.2 0 21.333-4.267 29.867-8.533 2.667-1.067 6.933-3.2 9.067-3.733 1.6 2.133 3.733 6.4 5.333 9.067 4.8 8 9.6 17.6 18.667 24s19.2 8.533 28.8 10.667c3.2 0.533 7.467 1.6 10.133 2.133 0 2.667-0.533 6.933-1.067 10.133-1.067 9.6-2.133 20.267 1.067 30.4s10.667 18.133 17.067 25.067c2.133 2.133 5.867 5.867 7.467 8.533-1.6 2.133-4.8 5.867-7.467 8.533-6.4 6.933-13.333 14.4-17.067 25.067-3.2 10.667-2.133 21.333-1.067 30.4 0.533 3.2 1.067 7.467 1.067 10.133-2.667 1.067-6.933 1.6-10.133 2.133-9.067 1.6-19.733 3.733-28.8 10.667-9.067 6.4-13.867 16-18.667 24-1.6 2.667-3.733 6.933-5.333 9.067-2.667-1.067-6.4-2.667-9.067-3.733-8.533-3.733-18.667-8.533-29.867-8.533s-21.333 4.267-29.867 8.533c-2.667 1.067-6.933 3.2-9.067 3.733-1.6-2.133-3.733-6.4-5.333-9.067-4.8-8-9.6-17.6-18.667-24s-19.2-8.533-28.8-10.667c-3.2-0.533-7.467-1.6-10.133-2.133 0-2.667 0.533-6.933 1.067-10.133 1.067-9.6 2.133-20.267-1.067-30.4s-10.667-18.133-17.067-25.067c-2.133-2.133-5.867-5.867-7.467-8.533 1.6-2.133 4.8-5.867 7.467-8.533 6.4-6.933 13.333-14.4 17.067-25.067 3.2-10.667 2.133-21.333 1.067-30.4-0.533-3.2-1.067-7.467-1.067-10.133 2.667-1.067 6.933-1.6 10.133-2.133 9.067-1.6 19.733-3.733 28.8-10.667 9.067-6.4 13.867-16 18.667-24 1.6-2.667 3.733-6.933 5.333-9.067 2.667 1.067 6.4 2.667 9.067 3.733 8.533 4.267 18.667 8.533 29.867 8.533zM784.533 467.733v0 0zM580.8 467.733v0 0zM786.667 470.4v0 0zM555.2 542.933v0 0zM810.133 545.067v0 0zM578.667 617.6v0 0zM784.533 620.267v0 0zM580.8 620.267v0zM723.733 664.533v0 0zM644.8 665.6v0 0z" />
<glyph unicode="&#xe0de;" glyph-name="Bosch-IC-certificate-pki" data-tags="Bosch-IC-certificate-pki" d="M85.333 789.333v-512h426.667v42.667h-384v426.667h768v-426.667h-42.667v-42.667h85.333v512zM768 193.6l-85.333 68.267-85.333-68.267v169.067h-42.667v-257.6l128 102.4 128-102.4v257.6h-42.667zM826.133 590.933c-0.533 1.6 0 8 0.533 12.267 1.6 11.733 3.2 27.733-6.4 41.067-10.133 13.333-25.6 16.533-37.333 18.667-4.267 1.067-10.133 2.133-11.733 3.2s-4.267 6.4-6.4 10.133c-5.333 10.667-13.333 24.533-29.333 29.867-15.467 5.333-29.333-1.067-40.533-6.4-3.2-2.133-9.6-4.8-11.733-4.8-2.667 0-8.533 3.2-12.267 4.8-11.2 4.8-25.067 11.2-40.533 6.4-15.467-5.333-23.467-19.733-29.333-29.867-2.133-3.733-4.8-9.067-6.4-10.133s-7.467-2.667-11.733-3.2c-11.733-2.133-27.733-5.333-37.333-18.667s-8-29.333-6.4-41.067c0.533-4.267 1.067-10.667 0.533-12.267s-4.8-6.4-7.467-9.067c-8-8.533-19.2-20.267-19.2-37.333 0-16.533 11.2-28.8 19.2-37.333 2.667-3.2 6.933-7.467 7.467-9.067s0-8-0.533-12.267c-1.6-11.733-3.2-27.733 6.4-41.067 10.133-13.333 25.6-16.533 37.333-18.667 4.267-1.067 10.133-2.133 11.733-3.2s4.267-6.4 6.4-10.133c5.333-10.667 13.333-24.533 29.333-29.867 15.467-5.333 29.333 1.067 40.533 6.4 3.2 2.133 9.6 4.8 11.733 4.8 2.667 0 8.533-3.2 12.267-4.8 8-4.267 18.133-8.533 28.8-8.533 3.733 0 7.467 0.533 11.733 2.133 15.467 5.333 23.467 19.733 29.333 29.867 2.133 3.733 4.8 9.067 6.4 10.133s7.467 2.667 11.733 3.2c11.733 2.133 27.733 5.333 37.333 18.667s8 29.333 6.4 41.067c-0.533 4.267-1.067 10.667-0.533 12.267s4.8 6.4 7.467 9.067c8 8.533 19.2 20.267 19.2 37.333 0 16.533-11.2 28.8-19.2 37.333-2.667 3.2-6.933 7.467-7.467 9.067zM801.6 535.467c-6.4-6.933-13.867-14.933-17.067-25.067s-2.133-20.8-1.067-30.4c0.533-3.2 1.067-7.467 1.067-10.133-2.667-0.533-6.933-1.6-10.133-2.133-9.6-2.133-19.733-4.267-28.8-10.667s-13.867-16-18.667-24c-1.6-2.667-3.733-6.933-5.333-9.067-2.133 0.533-6.4 2.667-9.067 3.733-8.533 4.267-18.667 8.533-29.867 8.533s-21.333-4.267-29.867-8.533c-2.667-1.067-6.4-2.667-9.067-3.733-1.6 2.133-3.733 6.4-5.333 9.067-4.8 8-9.6 17.6-18.667 24-9.067 6.933-19.733 9.067-28.8 10.667-3.2 0.533-7.467 1.067-10.133 2.133 0 2.667 0.533 6.933 1.067 10.133 1.067 9.067 2.133 19.733-1.067 30.4-3.733 10.667-10.667 18.133-17.067 25.067-2.667 2.667-5.867 6.4-7.467 8.533 1.6 2.667 5.333 6.4 7.467 8.533 6.4 6.933 13.867 14.933 17.067 25.067s2.133 20.8 1.067 30.4c-0.533 3.2-1.067 7.467-1.067 10.133 2.667 0.533 6.933 1.6 10.133 2.133 9.6 2.133 19.733 4.267 28.8 10.667s13.867 16 18.667 24c1.6 2.667 3.733 6.933 5.333 9.067 2.133-0.533 6.4-2.667 9.067-3.733 8.533-4.267 18.667-8.533 29.867-8.533s21.333 4.8 29.867 8.533c2.667 1.067 6.4 2.667 9.067 3.733 1.6-2.133 3.733-6.4 5.333-9.067 4.8-8 9.6-17.6 18.667-24 9.067-6.933 19.733-9.067 28.8-10.667 3.2-0.533 7.467-1.067 10.133-2.133 0-2.667-0.533-6.933-1.067-10.133-1.067-9.067-2.133-19.733 1.067-30.4 3.733-10.667 10.667-18.133 17.067-25.067 2.667-2.667 5.867-6.4 7.467-8.533-1.6-2.667-5.333-6.4-7.467-8.533zM170.667 597.333v-128h35.2v43.2h24c28.8 0 46.4 16 46.4 41.6 0 27.2-17.6 43.2-48 43.2h-57.6zM242.667 555.2c0-10.667-6.4-16.533-17.6-16.533h-18.667v32.533h19.2c11.2 0 17.067-5.333 17.067-16zM293.333 597.333v-128h35.2v34.667l10.133 12.267 30.4-46.933h38.933l-46.4 73.6 42.667 54.4h-38.4l-37.333-49.6v49.6zM426.667 597.333h35.2v-128h-35.2v128z" />
<glyph unicode="&#xe0df;" glyph-name="Bosch-IC-change" data-tags="Bosch-IC-change" d="M85.333 106.667h384v384h-384v-384zM128 448h298.667v-298.667h-298.667v298.667zM746.667 490.667c-105.6 0-192-85.867-192-192s85.867-192 192-192 192 85.867 192 192-86.4 192-192 192zM746.667 149.333c-82.133 0-149.333 67.2-149.333 149.333s67.2 149.333 149.333 149.333 149.333-67.2 149.333-149.333-67.2-149.333-149.333-149.333zM298.667 388.267h-32.533c-4.8-20.267-17.067-29.867-43.2-32.533v-28.267c14.4 0 28.267 1.6 36.8 4.8v-92.267h-37.867v-30.933h109.867v30.933h-33.067v148.267zM772.8 274.133c18.133 17.067 26.667 34.667 26.667 54.4 0 29.333-19.733 48-52.267 48-28.8 0-46.4-13.867-54.4-42.133l29.867-7.467c4.267 16 11.2 22.933 22.933 22.933 12.267 0 19.2-8 19.2-21.333 0-16.533-9.6-33.067-28.267-50.133-12.267-10.667-19.2-16-43.733-31.467v-26.133h108.267v26.133h-65.067c18.667 11.733 27.733 18.667 36.8 27.2zM679.467 609.6l-45.333 45.333-30.4-30.4 100.267-100.267 100.267 100.267-30.4 30.4-50.667-50.667c-13.867 104.533-102.933 185.067-211.2 185.067-117.867 0-213.333-95.467-213.333-213.333h42.667c0 93.867 76.8 170.667 170.667 170.667 82.667 0 152-59.2 167.467-137.067z" />
<glyph unicode="&#xe0e0;" glyph-name="Bosch-IC-chart-bar" data-tags="Bosch-IC-chart-bar" d="M597.333 106.667h-170.667v448h170.667v-448zM469.333 149.333h85.333v362.667h-85.333v-362.667zM853.333 106.667h-170.667v682.667h170.667v-682.667zM725.333 149.333h85.333v597.333h-85.333v-597.333zM341.333 106.667h-170.667v213.333h170.667v-213.333zM213.333 149.333h85.333v128h-85.333v-128z" />
<glyph unicode="&#xe0e1;" glyph-name="Bosch-IC-chart-check" data-tags="Bosch-IC-chart-check" d="M746.667 118.933l-57.6 58.133 29.867 29.867 27.733-27.2 70.4 69.867 29.867-29.867zM768 21.333c-93.867 0-170.667 76.8-170.667 170.667s76.8 170.667 170.667 170.667 170.667-76.8 170.667-170.667-76.8-170.667-170.667-170.667zM768 320c-70.4 0-128-57.6-128-128s57.6-128 128-128 128 57.6 128 128-57.6 128-128 128zM170.667 149.333v-42.667h401.6c-5.867 13.333-10.667 27.733-13.333 42.667h-388.267zM170.667 789.333h42.667v-597.333h-42.667v597.333zM256 789.333h42.667v-597.333h-42.667v597.333zM341.333 789.333h42.667v-597.333h-42.667v597.333zM426.667 789.333h42.667v-597.333h-42.667v597.333zM512 789.333h42.667v-597.333h-42.667v597.333zM640 362.667v426.667h-42.667v-469.333c12.267 16 26.667 30.4 42.667 42.667zM725.333 789.333h-42.667v-401.6c13.333 5.867 27.733 10.667 42.667 13.333v388.267zM810.667 789.333h-42.667v-384c14.4 0 28.8-1.6 42.667-4.267v388.267z" />
<glyph unicode="&#xe0e2;" glyph-name="Bosch-IC-chart-dummy" data-tags="Bosch-IC-chart-dummy" d="M170.667 149.333v-42.667h401.6c-5.867 13.333-10.667 27.733-13.333 42.667h-388.267zM170.667 789.333h42.667v-597.333h-42.667v597.333zM256 789.333h42.667v-597.333h-42.667v597.333zM341.333 789.333h42.667v-597.333h-42.667v597.333zM426.667 789.333h42.667v-597.333h-42.667v597.333zM512 789.333h42.667v-597.333h-42.667v597.333zM640 362.667v426.667h-42.667v-469.333c12.267 16 26.667 30.4 42.667 42.667zM725.333 789.333h-42.667v-401.6c13.333 5.867 27.733 10.667 42.667 13.333v388.267zM810.667 789.333h-42.667v-384c14.4 0 28.8-1.6 42.667-4.267v388.267zM938.667 192c0 93.867-76.8 170.667-170.667 170.667s-170.667-76.8-170.667-170.667 76.8-170.667 170.667-170.667 170.667 76.8 170.667 170.667zM768 320v-133.333h128c-2.667-68.267-59.2-122.667-128-122.667v122.667h-128c0 1.6 0 3.733 0 5.333 0 70.4 57.6 128 128 128z" />
<glyph unicode="&#xe0e3;" glyph-name="Bosch-IC-chart-line" data-tags="Bosch-IC-chart-line" d="M213.333 149.333v640h-42.667v-682.667h682.667v42.667zM473.6 463.467l105.6-63.467 188.8 188.267v-54.933h42.667v128h-128v-42.667h54.933l-164.8-165.333-107.733 64.533-203.733-226.133 32-28.8z" />
<glyph unicode="&#xe0e4;" glyph-name="Bosch-IC-chat" data-tags="Bosch-IC-chat" d="M874.667 97.6l-179.733 179.733h-268.267v362.667h512v-362.667h-64v-179.733zM469.333 320h243.733l118.933-118.933v118.933h64v277.333h-426.667v-277.333zM149.333 225.6v179.733h-64v384h533.333v-106.667h-42.667v64h-448v-298.667h64v-118.933l118.933 118.933h73.067v-42.667h-54.933z" />
<glyph unicode="&#xe0e5;" glyph-name="Bosch-IC-chat-add" data-tags="Bosch-IC-chat-add" d="M746.667 277.333h42.667v-170.667h-42.667v170.667zM682.667 213.333h170.667v-42.667h-170.667v42.667zM768 21.333c-93.867 0-170.667 76.8-170.667 170.667s76.8 170.667 170.667 170.667 170.667-76.8 170.667-170.667-76.8-170.667-170.667-170.667zM768 320c-70.4 0-128-57.6-128-128s57.6-128 128-128 128 57.6 128 128-57.6 128-128 128zM640 362.667h-277.333v-161.6l-161.6 161.6h-73.067v341.333h597.333v-302.933c13.867 2.667 28.267 4.267 42.667 4.267v341.333h-682.667v-426.667h97.6l222.4-222.4v222.4h192c12.267 16 26.667 30.4 42.667 42.667z" />
<glyph unicode="&#xe0e6;" glyph-name="Bosch-IC-chat-question-answer" data-tags="Bosch-IC-chat-question-answer" d="M426.667 640v-362.667h268.267l179.733-179.733v179.733h64v362.667h-512zM896 320h-64v-118.933l-118.933 118.933h-243.733v277.333h426.667v-277.333zM192 329.067v118.933h-64v298.667h448v-64h42.667v106.667h-533.333v-384h64v-179.733l179.733 179.733h54.933v42.667h-73.067zM213.333 533.333c0-11.782-9.551-21.333-21.333-21.333s-21.333 9.551-21.333 21.333c0 11.782 9.551 21.333 21.333 21.333s21.333-9.551 21.333-21.333zM298.667 533.333c0-11.782-9.551-21.333-21.333-21.333s-21.333 9.551-21.333 21.333c0 11.782 9.551 21.333 21.333 21.333s21.333-9.551 21.333-21.333zM384 533.333c0-11.782-9.551-21.333-21.333-21.333s-21.333 9.551-21.333 21.333c0 11.782 9.551 21.333 21.333 21.333s21.333-9.551 21.333-21.333zM657.6 432.533c0 20.8 6.933 32 27.2 45.867 16.533 11.2 21.333 17.6 21.333 28.8 0 12.8-9.067 21.867-22.933 21.867-16 0-26.667-8.533-32-27.2l-40.533 10.667c5.333 18.133 12.267 28.267 24 37.333 12.8 9.6 29.867 14.933 50.133 14.933 41.067 0 67.733-21.867 67.733-55.467 0-21.333-8-34.133-33.067-50.667-17.067-11.2-20.8-16.533-20.8-30.4v-5.333h-42.133v9.6zM705.067 379.2c0-14.933-12.267-27.2-27.733-27.2s-27.2 12.267-27.2 27.2c0 14.933 12.267 27.2 27.733 27.2 14.933 0 27.2-12.267 27.2-27.2z" />
<glyph unicode="&#xe0e7;" glyph-name="Bosch-IC-chat-remove" data-tags="Bosch-IC-chat-remove" d="M768 362.667c-93.867 0-170.667-76.8-170.667-170.667s76.8-170.667 170.667-170.667 170.667 76.8 170.667 170.667-76.8 170.667-170.667 170.667zM768 64c-70.4 0-128 57.6-128 128s57.6 128 128 128 128-57.6 128-128-57.6-128-128-128zM682.667 213.333h170.667v-42.667h-170.667v42.667zM640 362.667h-277.333v-161.6l-161.6 161.6h-73.067v341.333h597.333v-302.933c13.867 2.667 28.267 4.267 42.667 4.267v341.333h-682.667v-426.667h97.6l222.4-222.4v222.4h192c12.267 16 26.667 30.4 42.667 42.667z" />
<glyph unicode="&#xe0e8;" glyph-name="Bosch-IC-checklist" data-tags="Bosch-IC-checklist" d="M618.667 588.267l-57.6 58.133 29.867 29.867 27.733-27.2 70.4 69.867 29.867-29.867zM618.667 438.933l-57.6 58.133 29.867 29.867 27.733-27.2 70.4 69.867 29.867-29.867zM618.667 289.6l-57.6 58.133 29.867 29.867 27.733-27.2 70.4 69.867 29.867-29.867zM810.667 21.333h-597.333v853.333h597.333v-853.333zM256 64h512v768h-512v-768zM298.667 661.333h213.333v-42.667h-213.333v42.667zM298.667 512h213.333v-42.667h-213.333v42.667zM298.667 362.667h213.333v-42.667h-213.333v42.667z" />
<glyph unicode="&#xe0e9;" glyph-name="Bosch-IC-checkmark" data-tags="Bosch-IC-checkmark" d="M405.333 204.267l-228.267 228.8 29.867 29.867 198.4-197.867 411.733 411.2 29.867-29.867z" />
<glyph unicode="&#xe0ea;" glyph-name="Bosch-IC-chip" data-tags="Bosch-IC-chip" d="M661.333 597.333h-298.667v-298.667h298.667v298.667zM618.667 341.333h-213.333v213.333h213.333v-213.333zM938.667 512v42.667h-149.333v170.667h-170.667v149.333h-42.667v-149.333h-128v149.333h-42.667v-149.333h-170.667v-170.667h-149.333v-42.667h149.333v-128h-149.333v-42.667h149.333v-170.667h170.667v-149.333h42.667v149.333h128v-149.333h42.667v149.333h170.667v170.667h149.333v42.667h-149.333v128h149.333zM746.667 213.333h-469.333v469.333h469.333v-469.333z" />
<glyph unicode="&#xe0eb;" glyph-name="Bosch-IC-circle-segment" data-tags="Bosch-IC-circle-segment" d="M819.2 744c-75.733 78.4-177.067 124.8-285.867 130.133v-42.667c203.733-11.2 362.667-178.133 362.667-383.467 0-211.733-172.267-384-384-384-100.8 0-196.267 38.933-268.267 109.333-69.333 67.733-109.867 157.333-115.2 253.333h-42.667c5.333-107.733 50.667-208.533 128-284.267 80.533-77.867 186.133-121.067 298.133-121.067 235.2 0 426.667 191.467 426.667 426.667 0 110.933-42.667 216-119.467 296zM297.067 662.933c52.267 52.267 120.533 83.2 193.6 88v128c-107.2-5.333-208-50.133-284.267-125.867-75.733-75.733-120.533-176.533-125.867-283.733h128c5.333 73.067 36.267 141.333 88.533 193.6z" />
<glyph unicode="&#xe0ec;" glyph-name="Bosch-IC-clear-all" data-tags="Bosch-IC-clear-all" d="M682.667 277.333h-512v512h512v-512zM213.333 320h426.667v426.667h-426.667v-426.667zM853.333 106.667h-533.333v42.667h490.667v490.667h42.667zM768 192h-533.333v42.667h490.667v490.667h42.667zM384 438.933l-100.267 100.8 29.867 29.867 70.4-69.867 155.733 155.2 29.867-29.867z" />
<glyph unicode="&#xe0ed;" glyph-name="Bosch-IC-clipboard" data-tags="Bosch-IC-clipboard" d="M661.333 832v42.667h-298.667v-42.667h-149.333v-810.667h597.333v810.667h-149.333zM405.333 832h213.333v-42.667h-213.333v42.667zM768 64h-512v725.333h106.667v-42.667h298.667v42.667h106.667v-725.333zM341.333 597.333h341.333v-42.667h-341.333v42.667zM341.333 448h341.333v-42.667h-341.333v42.667zM341.333 298.667h149.333v-42.667h-149.333v42.667z" />
<glyph unicode="&#xe0ee;" glyph-name="Bosch-IC-clipboard-list" data-tags="Bosch-IC-clipboard-list" d="M618.667 585.067l-27.733 27.2-29.867-29.867 57.6-58.133 100.267 100.8-29.867 29.867zM618.667 435.733l-27.733 27.2-29.867-29.867 57.6-58.133 100.267 100.8-29.867 29.867zM618.667 286.4l-27.733 27.2-29.867-29.867 57.6-58.133 100.267 100.8-29.867 29.867zM661.333 832v42.667h-298.667v-42.667h-149.333v-810.667h597.333v810.667h-149.333zM405.333 832h213.333v-42.667h-213.333v42.667zM768 64h-512v725.333h106.667v-42.667h298.667v42.667h106.667v-725.333zM298.667 597.333h213.333v-42.667h-213.333v42.667zM298.667 448h213.333v-42.667h-213.333v42.667zM298.667 298.667h213.333v-42.667h-213.333v42.667z" />
<glyph unicode="&#xe0ef;" glyph-name="Bosch-IC-clock" data-tags="Bosch-IC-clock" d="M725.333 426.667h-234.667v298.667h42.667v-256h192zM512 21.333c-235.2 0-426.667 191.467-426.667 426.667s191.467 426.667 426.667 426.667 426.667-191.467 426.667-426.667-191.467-426.667-426.667-426.667zM512 832c-211.733 0-384-172.267-384-384s172.267-384 384-384 384 172.267 384 384-172.267 384-384 384z" />
<glyph unicode="&#xe0f0;" glyph-name="Bosch-IC-close" data-tags="Bosch-IC-close" d="M846.933 753.067l-29.867 29.867-305.067-304.533-305.067 304.533-29.867-29.867 304.533-305.067-304.533-305.067 29.867-29.867 305.067 304.533 305.067-304.533 29.867 29.867-304.533 305.067z" />
<glyph unicode="&#xe0f1;" glyph-name="Bosch-IC-close-all" data-tags="Bosch-IC-close-all" d="M682.667 789.333h-512v-512h512v512zM640 320h-426.667v426.667h426.667v-426.667zM810.667 640v-490.667h-490.667v-42.667h533.333v533.333zM768 725.333h-42.667v-490.667h-490.667v-42.667h533.333zM345.6 422.4l81.067 80.533 81.067-80.533 29.867 29.867-80.533 81.067 80.533 81.067-29.867 29.867-81.067-80.533-81.067 80.533-29.867-29.867 80.533-81.067-80.533-81.067z" />
</font>
</defs>
</svg>
